Filmbol Forum Film İndir 1080P v Primal (2019) Türkçe Dublaj BLURAY 1080P indir
Mega linklerinin şikayet edilmemesi için global erişime kapatıp sadece yorum yapanlara açıyoruz. Bu linkleri gizleme işlemini mecburen yapıyoruz ve yorum yapmanızın siteye değil size faydası vardır. Teşekürler yazmayı çok görüp, Random/Spam mesajlar atarak Mega linklerini açmaya çalışan kullanıcılara önce süresiz ban, devam ederse IP ban atacağız.
Filmbol'da moderatör olmak ister misiniz? Bizimle iletişime geçmek için tıklayın!
Primal (2019) Türkçe Dublaj BLURAY 1080P indir
BroserBros
Primal (2019) Türkçe Dublaj BLURAY 1080P indir
3
286
  • Derecelendirme: 0/5 - 0 oy
  • 1
  • 2
  • 3
  • 4
  • 5
Konuyu Okuyanlar:1 Ziyaretçi
Şuan Online!
Filmin Yayınlanma Tarihi: 2019 
WWW
Şuan Online!
BroserBros Kurucu Admin
*******
Admin








 Primal



Frank Walsh aslında bir hayvan tüccarıdır. Ancak işi sanıldığı gibi basit değildir çünkü Frank en nadide bulunur hayvanları avlar ve canlı/cansız satmaktadır. Yine güzel bir iş günü sonunda nadide bulunan bir Leopar ele geçirir. Bu hayatı boyunca yaptığı en iyi avlardan biridir ve onu ABD'ye götürüp yüklü bir miktara satmanın hayalini kurmaktadır. Gemi ile seyahati sırasında olmadık bir şey yaşanır ve gemide bulunan bütün hayvanlar bir kişi tarafından salıverilir...

Primal (2019) (2019) Filmi Imdb'den 3,000 kişi tarafından oylandı ve 4,8 puan aldı. Bu film için editör puanı 5,9 olarak belirlendi. İyi Seyirler!

Teknik Detaylar

Kod :
General
Unique ID                                : 262956461512182673907095808645534670235 (0xC5D392843207E9004BB8E272A36D5D9B)
Complete name                            : /root/Desktop/1/Primal.2019.1080p.BLURAY.x264.TR.Filmbol.mkv
Format                                   : Matroska
Format version                           : Version 4 / Version 2
File size                                : 1.55 GiB
Duration                                 : 1h 36mn
Overall bit rate                         : 2 295 Kbps
Movie name                               : Primal (2019) - Filmbol.org
Encoded date                             : UTC 2020-02-26 12:27:29
Writing application                      : mkvmerge v35.0.0 ('All The Love In The World') 64-bit
Writing library                          : libebml v1.3.9 + libmatroska v1.5.2

Video
ID                                       : 1
Format                                   : AVC
Format/Info                              : Advanced Video Codec
Format profile                           : [email protected]
Format settings, CABAC                   : Yes
Format settings, ReFrames                : 4 frames
Codec ID                                 : V_MPEG4/ISO/AVC
Duration                                 : 1h 36mn
Bit rate                                 : 2 100 Kbps
Width                                    : 1 920 pixels
Height                                   : 800 pixels
Display aspect ratio                     : 2.40:1
Frame rate mode                          : Constant
Frame rate                               : 23.976 (24000/1001) fps
Color space                              : YUV
Chroma subsampling                       : 4:2:0
Bit depth                                : 8 bits
Scan type                                : Progressive
Bits/(Pixel*Frame)                       : 0.057
Stream size                              : 1.42 GiB (92%)
Title                                    : 1080P - Filmbol.org
Writing library                          : x264 core 158
Encoding settings                        : cabac=1 / ref=4 / deblock=1:-1:-1 / analyse=0x3:0x133 / me=umh / subme=9 / psy=1 / psy_rd=1.00:0.15 / mixed_ref=1 / me_range=24 / chroma_me=1 / trellis=2 / 8x8dct=1 / cqm=0 / deadzone=21,11 / fast_pskip=0 / chroma_qp_offset=-3 / threads=12 / lookahead_threads=1 / sliced_threads=0 / nr=0 / decimate=1 / interlaced=0 / bluray_compat=0 / constrained_intra=0 / bframes=3 / b_pyramid=2 / b_adapt=2 / b_bias=0 / direct=3 / weightb=1 / open_gop=0 / weightp=2 / keyint=250 / keyint_min=23 / scenecut=40 / intra_refresh=0 / rc_lookahead=60 / rc=2pass / mbtree=1 / bitrate=2100 / ratetol=1.0 / qcomp=0.60 / qpmin=0 / qpmax=69 / qpstep=4 / cplxblur=20.0 / qblur=0.5 / vbv_maxrate=31250 / vbv_bufsize=31250 / nal_hrd=none / filler=0 / ip_ratio=1.40 / aq=1:1.00
Default                                  : Yes
Forced                                   : No

Audio
ID                                       : 2
Format                                   : AC-3
Format/Info                              : Audio Coding 3
Mode extension                           : CM (complete main)
Format settings, Endianness              : Big
Codec ID                                 : A_AC3
Duration                                 : 1h 36mn
Bit rate mode                            : Constant
Bit rate                                 : 192 Kbps
Channel(s)                               : 2 channels
Channel positions                        : Front: L R
Sampling rate                            : 48.0 KHz
Frame rate                               : 31.250 fps (1536 spf)
Compression mode                         : Lossy
Stream size                              : 133 MiB (8%)
Title                                    : Türkçe - Filmbol.org
Language                                 : Turkish
Default                                  : Yes
Forced                                   : No

Film Detayları


 Primal

 Primal

 Primal


Film Fragmanı


Film Detayları

Uptobox ile indir

1Fichier ile indir

1Fichier'den İndiremiyor musun? Tıklayın!


Mega linki şuan da gizli. Kullanıma açmak için konuya yorum yapın ve ardından sayfayı yenileyin.

Mega


MediaFire ile indir

Şuan Offine!
Şuan Offine!
Murat94 Süper Üye
***
Super Üye

  • Konular0
  • Mesajlar36
  • Rep puanı 0
Elinize sağlık
Şuan Offine!
Şuan Offine!
ismahilo Uzman Üye
**
Uzman Üye

  • Konular0
  • Mesajlar12
  • Rep puanı 0
TEŞEKKÜRLER
Şuan Offine!
Şuan Offine!
aspirin4646 Uzman Üye
**
Uzman Üye

  • Konular0
  • Mesajlar21
  • Rep puanı 0
süper


Konu ile Alakalı Benzer Konular
Konular Yazar Yorumlar Okunma Son Yorum
Filmin Yayınlanma Tarihi: 2016
The Nice Guys: İyi Adamlar (2016) Türkçe Dublaj 1080P İndir BroserBros 4 1,315 4 saat önce
Son Yorum: ANDREMEDAN
Filmin Yayınlanma Tarihi: 2014
Madagaskar Penguenleri (Penguins of Madagascar) Türkçe Dublaj BLURAY 1080P İndir BroserBros 3 710 7 saat önce
Son Yorum: Omertrans505
Filmin Yayınlanma Tarihi: 2020
Her Zaman Şeytan (The Devil All the Time) - 2020 - TR+ORG - 1080P | tt7395114 TheSteeL 0 15 8 saat önce
Son Yorum: TheSteeL
Filmin Yayınlanma Tarihi: 2020
Baba Aranıyor (Se busca papá) - 2020 - TR+ORG - 1080P | tt12721188 TheSteeL 0 17 8 saat önce
Son Yorum: TheSteeL
Filmin Yayınlanma Tarihi: 2019
Beyaz Kentin Sessizliği (El silencio de la ciudad blanca) - 2019 - TR+ORG - 1080P | tt8393332 BroserBros 1 254 , Saat: 15:38
Son Yorum: BroserBros

Hızlı Menü: