Filmbol Forum Portal
Portal
, Saat: 23:16
Yorumlar : 0 • Okunma : 23

Vizyon Tarihi


27 Haziran 2014

imdb puanı


5,6 / 300,000

süre


165 dakika

Editör Puanı


7,2 / 10

Video Format: Mkv


Matroska (.MKV)

Ses Kodek: AC3


Audio Coding 3 (AC3)

sürüm


x265 | 4K | BluRay

Boyutlar


10,01 GB


<br /><center><p><img style="height: 100%; max-height: 400px; weight: auto; display: block; margin-left: auto; margin-right: auto;" src="//www.filmbol.org/wp-content/uploads/2020/06/transformers-kayip-cag-04.webp" alt=" Transformers: Kayıp Çağ " width="273" height="400" /></p></center>

Autobot ve Decepticon'lar arasında yaşanan son savaşın ardından dört yıl geçer. Savaşta Chicago şehri yerle bir edilmiş ve binlerce insan öldürülmüş olsa da dünya ve insanlık büyük bir tehditten kurtulmuş olur. İnsanlık yaralarını sarmaya çalışırken Amerikan hükümeti de Autobotlar ile arasındaki ilişkiye iyice koparmış, hatta hayatta kalanları yok etmeleri için CIA'de özel bir birim dahi kurulmuştur. Teksas'ta kendi halinde bir tamirci olan Cade Yeager, eline geçen hasarlı bir kamyoneti, parçalarını satma umuduyla kabul eder. Ne var ki bu kamyonetin yaralı bir Optimus Prime'dan başkası olmadığını anlaması uzun sürmez. Optimus Prime'dan aldıkları sinyallerle yola çıkan CIA ajanlarıyla başının derde girmesi de çok yakındır. Cade Yeager bir şekilde Optimus Prime'ı Chicago'ya ulaştırmak ve diğer Autobotlar ile iletişime geçmesini sağlamak zorundadır. Zira dünyayı tehdit eden güçlü bir düşman yola çıkmak üzeredir. Optimus Prime ve Autobotlar, Cade Yeager başta olmak üzere kendilerine destek olan insan topluluğunun yardımıyla başlarına gelen en korkutucu düşmanla yüzleşmek zorundadır...
<p style="text-align: center;"><strong>Transformers: Kayıp Çağ (2014) (Transformers: Age of Extinction)</strong> Filmi Imdb'den 300,000 kişi tarafından oylandı ve 5,6 puan aldı. Bu film için editör puanı 7,2 olarak belirlendi. İyi Seyirler!</p>
Teknik Detaylar

Kod :
General
Unique ID                                : 195659041950791272786222294228922583828 (0x93328F8F2AEA105EB61807F48894CB14)
Complete name                            : /root/Desktop/7/Transformers.Kayıp.Çağ.2014.4K.UHD.BluRay.x265.10Bit.TR.ENG.Filmbol.mkv
Format                                  : Matroska
Format version                          : Version 4 / Version 2
File size                                : 10.1 GiB
Duration                                : 2h 45mn
Overall bit rate                        : 8 738 Kbps
Movie name                              : Transformers: Kayıp Çağ - Transformers: Age of Extinction - 2014 | Filmbol.org
Encoded date                            : UTC 2020-05-29 16:41:54
Writing application                      : mkvmerge v8.8.0 ('Wind at my back') 64bit
Writing library                          : libebml v1.3.3 + libmatroska v1.4.4

Video
ID                                      : 1
Format                                  : HEVC
Format/Info                              : High Efficiency Video Coding
Format profile                          : Main 10@L5@Main
Codec ID                                : V_MPEGH/ISO/HEVC
Duration                                : 2h 45mn
Bit rate                                : 7 996 Kbps
Width                                    : 3 840 pixels
Height                                  : 1 600 pixels
Display aspect ratio                    : 2.40:1
Frame rate mode                          : Constant
Frame rate                              : 23.976 (24000/1001) fps
Color space                              : YUV
Chroma subsampling                      : 4:2:0
Bit depth                                : 10 bits
Bits/(Pixel*Frame)                      : 0.054
Stream size                              : 9.22 GiB (92%)
Title                                    : 4K - Filmbol.org
Writing library                          : x265 3.0_Au+24-4217e691387c:[Windows][GCC 9.1.1][64 bit] 10bit
Encoding settings                        : rc=abr / bitrate=8000 / qcomp=0.60 / qpstep=4 / stats-write=0 / stats-read=2 / cplxblur=20.0 / qblur=0.5 / qpmax=69 / qpmin=0 / no-lossless / no-cu-lossless / no-hevc-aq / no-aq-motion / aq-mode=3 / aq-strength=0.80 / cbqpoffs=0 / crqpoffs=0 / ipratio=1.40 / pbratio=1.30 / psy-rd=2.20 / psy-rdoq=1.15 / deblock=0:0 / ref=4 / limit-refs=3 / limit-modes / bframes=8 / b-adapt=2 / bframe-bias=20 / b-pyramid / no-b-intra / weightp / no-weightb / keyint=250 / min-keyint=23 / rc-lookahead=80 / gop-lookahead=0 / scenecut=40 / scenecut-bias=0.05 / ctu=64 / min-cu-size=8 / me=3 / subme=3 / merange=57 / rd=4 / no-rd-refine / ssim-rd / dynamic-rd=0.00 / rdoq-level=2 / rdpenalty=0 / cutree / sao / limit-sao / no-sao-non-deblock / no-rect / no-amp / open-gop / max-tu-size=32 / tu-inter-depth=1 / tu-intra-depth=1 / limit-tu=0 / qg-size=32 / wpp / no-pmode / no-pme / no-psnr / ssim / no-tskip / constrained-intra / strong-intra-smoothing / max-merge=3 / nr-intra=0 / nr-inter=0 / input-csp=1 / input-res=3840x1600 / interlace=0 / total-frames=237537 / level-idc=0 / high-tier=1cpuid=1111039 / frame-threads=3 / numa-pools=12 / log-level=2 / uhd-bd=0 / lookahead-slices=4 / radl=0 / no-splice / no-intra-refresh / signhide / temporal-mvp / no-analyze-src-pics / early-skip / rskip / no-fast-intra / no-tskip-fast / splitrd-skip / zone-count=0 / no-strict-cbr / no-rc-grain / no-const-vbv / no-allow-non-conformance / no-repeat-headers / annexb / no-aud / no-hrd / info / hash=0 / no-temporal-layers / sar=0 / overscan=0 / videoformat=5 / range=0 / colorprim=2 / transfer=2 / colormatrix=2 / chromaloc=0 / display-window=0 / max-cll=0,0 / min-luma=0 / max-luma=1023 / log2-max-poc-lsb=8 / vui-timing-info / vui-hrd-info / slices=1 / no-opt-qp-pps / no-opt-ref-list-length-pps / multi-pass-opt-rps / no-opt-cu-delta-qp / no-hdr / no-hdr-opt / no-dhdr10-opt / no-idr-recovery-sei / analysis-reuse-level=10 / scale-factor=0 / refine-intra=0 / refine-inter=0 / refine-mv=0 / refine-ctu-distortion=0 / ctu-info=0 / no-lowpass-dct / refine-analysis-type=0 / copy-pic=1 / max-ausize-factor=1.0 / no-dynamic-refine / no-single-sei / no-svt / qp-adaptation-range=1.00
Default                                  : Yes
Forced                                  : No

Audio #1
ID                                      : 2
Format                                  : AC-3
Format/Info                              : Audio Coding 3
Mode extension                          : CM (complete main)
Format settings, Endianness              : Big
Codec ID                                : A_AC3
Duration                                : 2h 45mn
Bit rate mode                            : Constant
Bit rate                                : 640 Kbps
Channel(s)                              : 6 channels
Channel positions                        : Front: L C R, Side: L R, LFE
Sampling rate                            : 48.0 KHz
Frame rate                              : 31.250 fps (1536 spf)
Compression mode                        : Lossy
Stream size                              : 756 MiB (7%)
Title                                    : Türkçe - Filmbol.org
Language                                : Turkish
Default                                  : Yes
Forced                                  : Yes

Audio #2
ID                                      : 3
Format                                  : AAC
Format/Info                              : Advanced Audio Codec
Format profile                          : LC
Codec ID                                : A_AAC
Duration                                : 2h 45mn
Bit rate                                : 93.7 Kbps
Channel(s)                              : 2 channels
Channel positions                        : Front: L R
Sampling rate                            : 48.0 KHz
Frame rate                              : 46.875 fps (1024 spf)
Compression mode                        : Lossy
Stream size                              : 111 MiB (1%)
Title                                    : İngilizce - Filmbol.org
Language                                : English
Default                                  : No
Forced                                  : No

Text #1
ID                                      : 4
Format                                  : VobSub
Muxing mode                              : zlib
Codec ID                                : S_VOBSUB
Codec ID/Info                            : Picture based subtitle format used on DVDs
Duration                                : 2h 43mn
Bit rate                                : 5 432 bps
Count of elements                        : 1884
Stream size                              : 6.37 MiB (0%)
Language                                : Turkish
Default                                  : No
Forced                                  : No

Text #2
ID                                      : 5
Format                                  : UTF-8
Codec ID                                : S_TEXT/UTF8
Codec ID/Info                            : UTF-8 Plain Text
Duration                                : 2h 36mn
Bit rate                                : 65 bps
Count of elements                        : 1889
Stream size                              : 74.9 KiB (0%)
Language                                : Turkish
Default                                  : No
Forced                                  : No

Film Detayları


<p><img style="height: 100%; max-height: 400px; weight: auto; display: block; margin-left: auto; margin-right: auto;" src="//www.filmbol.org/wp-content/uploads/2020/06/transformers-kayip-cag-01.webp" alt=" Transformers: Kayıp Çağ " width="750" height="400" /></p><p><img style="display: block; margin-left: auto; margin-right: auto;" src="//www.filmbol.org/wp-content/uploads/2020/06/transformers-kayip-cag-02.webp" alt=" Transformers: Kayıp Çağ " width="750" height="400" /></p><p><img style="height: 100%; max-height: 400px; weight: auto; display: block; margin-left: auto; margin-right: auto;" src="//www.filmbol.org/wp-content/uploads/2020/06/transformers-kayip-cag-03.webp" alt=" Transformers: Kayıp Çağ " width="750" height="400" /></p>

Film Fragmanı


Film Detayları

Uptobox ile indir

1Fichier ile indir

1Fichier'den İndiremiyor musun? Tıklayın!


Mega ile indir

Bunun için üzgünüz ancak, bu linke sadece premium üyeler erişebilir.

Filmbol Cloud

, Saat: 23:16
Yorumlar : 0 • Okunma : 23

Vizyon Tarihi


27 Haziran 2014

imdb puanı


5,6 / 300,000

süre


165 dakika

Editör Puanı


7,2 / 10

Video Format: Mkv


Matroska (.MKV)

Ses Kodek: AC3


Audio Coding 3 (AC3)

sürüm


x264 | 3D | BluRay

Boyutlar


3,00 GB


<br /><center><p><img style="height: 100%; max-height: 400px; weight: auto; display: block; margin-left: auto; margin-right: auto;" src="//www.filmbol.org/wp-content/uploads/2020/06/transformers-kayip-cag-04.webp" alt=" Transformers: Kayıp Çağ " width="273" height="400" /></p></center>

Autobot ve Decepticon'lar arasında yaşanan son savaşın ardından dört yıl geçer. Savaşta Chicago şehri yerle bir edilmiş ve binlerce insan öldürülmüş olsa da dünya ve insanlık büyük bir tehditten kurtulmuş olur. İnsanlık yaralarını sarmaya çalışırken Amerikan hükümeti de Autobotlar ile arasındaki ilişkiye iyice koparmış, hatta hayatta kalanları yok etmeleri için CIA'de özel bir birim dahi kurulmuştur. Teksas'ta kendi halinde bir tamirci olan Cade Yeager, eline geçen hasarlı bir kamyoneti, parçalarını satma umuduyla kabul eder. Ne var ki bu kamyonetin yaralı bir Optimus Prime'dan başkası olmadığını anlaması uzun sürmez. Optimus Prime'dan aldıkları sinyallerle yola çıkan CIA ajanlarıyla başının derde girmesi de çok yakındır. Cade Yeager bir şekilde Optimus Prime'ı Chicago'ya ulaştırmak ve diğer Autobotlar ile iletişime geçmesini sağlamak zorundadır. Zira dünyayı tehdit eden güçlü bir düşman yola çıkmak üzeredir. Optimus Prime ve Autobotlar, Cade Yeager başta olmak üzere kendilerine destek olan insan topluluğunun yardımıyla başlarına gelen en korkutucu düşmanla yüzleşmek zorundadır...
<p style="text-align: center;"><strong>Transformers: Kayıp Çağ (2014) (Transformers: Age of Extinction)</strong> Filmi Imdb'den 300,000 kişi tarafından oylandı ve 5,6 puan aldı. Bu film için editör puanı 7,2 olarak belirlendi. İyi Seyirler!</p>
Teknik Detaylar

Kod :
General
Unique ID                                : 225440576897469258725680279097407475356 (0xA99A469909C48F8D2068BC80658C8E9C)
Complete name                            : /root/Desktop/7/Transformers.Kayıp.Çağ.2014.3D.HSBS.BluRay.x264.TR.ENG.Filmbol.mkv
Format                                  : Matroska
Format version                          : Version 4 / Version 2
File size                                : 3.00 GiB
Duration                                : 2h 45mn
Overall bit rate                        : 2 600 Kbps
Movie name                              : Transformers: Kayıp Çağ - Transformers: Age of Extinction - 2014 | Filmbol.org
Encoded date                            : UTC 2020-05-29 16:37:18
Writing application                      : mkvmerge v8.8.0 ('Wind at my back') 64bit
Writing library                          : libebml v1.3.3 + libmatroska v1.4.4

Video
ID                                      : 1
Format                                  : AVC
Format/Info                              : Advanced Video Codec
Format profile                          : High@L4.1
Format settings, CABAC                  : Yes
Format settings, ReFrames                : 4 frames
Codec ID                                : V_MPEG4/ISO/AVC
Duration                                : 2h 45mn
Bit rate                                : 1 864 Kbps
Width                                    : 1 920 pixels
Height                                  : 1 016 pixels
Display aspect ratio                    : 1.890
Frame rate mode                          : Constant
Frame rate                              : 23.976 (24000/1001) fps
Original frame rate                      : 23.976 (23976/1000) fps
Color space                              : YUV
Chroma subsampling                      : 4:2:0
Bit depth                                : 8 bits
Scan type                                : Progressive
Bits/(Pixel*Frame)                      : 0.040
Stream size                              : 2.15 GiB (72%)
Title                                    : 3D - Filmbol.org
Writing library                          : x264 core 142 r2409 d6b4e63
Encoding settings                        : cabac=1 / ref=4 / deblock=1:-1:-1 / analyse=0x3:0x133 / me=umh / subme=9 / psy=1 / psy_rd=1.00:0.15 / mixed_ref=1 / me_range=24 / chroma_me=1 / trellis=2 / 8x8dct=1 / cqm=0 / deadzone=21,11 / fast_pskip=0 / chroma_qp_offset=-3 / threads=60 / lookahead_threads=5 / sliced_threads=0 / nr=0 / decimate=1 / interlaced=0 / bluray_compat=0 / constrained_intra=0 / bframes=3 / b_pyramid=2 / b_adapt=2 / b_bias=0 / direct=3 / weightb=1 / open_gop=0 / weightp=2 / keyint=250 / keyint_min=23 / scenecut=40 / intra_refresh=0 / rc_lookahead=60 / rc=2pass / mbtree=1 / bitrate=1864 / ratetol=1.0 / qcomp=0.60 / qpmin=0 / qpmax=69 / qpstep=4 / cplxblur=20.0 / qblur=0.5 / vbv_maxrate=31250 / vbv_bufsize=31250 / nal_hrd=none / filler=0 / ip_ratio=1.40 / aq=1:1.00
Default                                  : Yes
Forced                                  : No
Color range                              : Limited
Color primaries                          : BT.709
Matrix coefficients                      : BT.709

Audio #1
ID                                      : 2
Format                                  : AC-3
Format/Info                              : Audio Coding 3
Mode extension                          : CM (complete main)
Format settings, Endianness              : Big
Codec ID                                : A_AC3
Duration                                : 2h 45mn
Bit rate mode                            : Constant
Bit rate                                : 640 Kbps
Channel(s)                              : 6 channels
Channel positions                        : Front: L C R, Side: L R, LFE
Sampling rate                            : 48.0 KHz
Frame rate                              : 31.250 fps (1536 spf)
Compression mode                        : Lossy
Stream size                              : 756 MiB (25%)
Title                                    : Türkçe - Filmbol.org
Language                                : Turkish
Default                                  : Yes
Forced                                  : Yes

Audio #2
ID                                      : 3
Format                                  : AAC
Format/Info                              : Advanced Audio Codec
Format profile                          : LC
Codec ID                                : A_AAC
Duration                                : 2h 45mn
Bit rate                                : 93.7 Kbps
Channel(s)                              : 2 channels
Channel positions                        : Front: L R
Sampling rate                            : 48.0 KHz
Frame rate                              : 46.875 fps (1024 spf)
Compression mode                        : Lossy
Stream size                              : 111 MiB (4%)
Title                                    : İngilizce - Filmbol.org
Language                                : English
Default                                  : No
Forced                                  : No

Film Detayları


<p><img style="height: 100%; max-height: 400px; weight: auto; display: block; margin-left: auto; margin-right: auto;" src="//www.filmbol.org/wp-content/uploads/2020/06/transformers-kayip-cag-01.webp" alt=" Transformers: Kayıp Çağ " width="750" height="400" /></p><p><img style="display: block; margin-left: auto; margin-right: auto;" src="//www.filmbol.org/wp-content/uploads/2020/06/transformers-kayip-cag-02.webp" alt=" Transformers: Kayıp Çağ " width="750" height="400" /></p><p><img style="height: 100%; max-height: 400px; weight: auto; display: block; margin-left: auto; margin-right: auto;" src="//www.filmbol.org/wp-content/uploads/2020/06/transformers-kayip-cag-03.webp" alt=" Transformers: Kayıp Çağ " width="750" height="400" /></p>

Film Fragmanı


Film Detayları

Uptobox ile indir

1Fichier ile indir

1Fichier'den İndiremiyor musun? Tıklayın!


Mega ile indir

Bunun için üzgünüz ancak, bu linke sadece premium üyeler erişebilir.

Filmbol Cloud

, Saat: 23:16
Yorumlar : 0 • Okunma : 21

Vizyon Tarihi


27 Haziran 2014

imdb puanı


5,6 / 300,000

süre


165 dakika

Editör Puanı


7,2 / 10

Video Format: Mkv


Matroska (.MKV)

Ses Kodek: AC3


Audio Coding 3 (AC3)

sürüm


x265-10Bit|BluRay

Boyutlar


3,00 GB


<br /><center><p><img style="height: 100%; max-height: 400px; weight: auto; display: block; margin-left: auto; margin-right: auto;" src="//www.filmbol.org/wp-content/uploads/2020/06/transformers-kayip-cag-04.webp" alt=" Transformers: Kayıp Çağ " width="273" height="400" /></p></center>

Autobot ve Decepticon'lar arasında yaşanan son savaşın ardından dört yıl geçer. Savaşta Chicago şehri yerle bir edilmiş ve binlerce insan öldürülmüş olsa da dünya ve insanlık büyük bir tehditten kurtulmuş olur. İnsanlık yaralarını sarmaya çalışırken Amerikan hükümeti de Autobotlar ile arasındaki ilişkiye iyice koparmış, hatta hayatta kalanları yok etmeleri için CIA'de özel bir birim dahi kurulmuştur. Teksas'ta kendi halinde bir tamirci olan Cade Yeager, eline geçen hasarlı bir kamyoneti, parçalarını satma umuduyla kabul eder. Ne var ki bu kamyonetin yaralı bir Optimus Prime'dan başkası olmadığını anlaması uzun sürmez. Optimus Prime'dan aldıkları sinyallerle yola çıkan CIA ajanlarıyla başının derde girmesi de çok yakındır. Cade Yeager bir şekilde Optimus Prime'ı Chicago'ya ulaştırmak ve diğer Autobotlar ile iletişime geçmesini sağlamak zorundadır. Zira dünyayı tehdit eden güçlü bir düşman yola çıkmak üzeredir. Optimus Prime ve Autobotlar, Cade Yeager başta olmak üzere kendilerine destek olan insan topluluğunun yardımıyla başlarına gelen en korkutucu düşmanla yüzleşmek zorundadır...
<p style="text-align: center;"><strong>Transformers: Kayıp Çağ (2014) (Transformers: Age of Extinction)</strong> Filmi Imdb'den 300,000 kişi tarafından oylandı ve 5,6 puan aldı. Bu film için editör puanı 7,2 olarak belirlendi. İyi Seyirler!</p>
Teknik Detaylar

Kod :
General
Unique ID                                : 339351094615037107826466028575304380783 (0xFF4CA4BAF8DED89858C74D7668BAF16F)
Complete name                            : /root/Desktop/7/Transformers.Kayıp.Çağ.2014.FHD.BluRay.x265.10Bit.TR.ENG.Filmbol.mkv
Format                                  : Matroska
Format version                          : Version 4 / Version 2
File size                                : 7.18 GiB
Duration                                : 2h 45mn
Overall bit rate                        : 6 226 Kbps
Movie name                              : Transformers: Kayıp Çağ - Transformers: Age of Extinction - 2014 | Filmbol.org
Encoded date                            : UTC 2020-05-29 17:49:35
Writing application                      : mkvmerge v8.8.0 ('Wind at my back') 64bit
Writing library                          : libebml v1.3.3 + libmatroska v1.4.4

Video
ID                                      : 1
Format                                  : HEVC
Format/Info                              : High Efficiency Video Coding
Format profile                          : Main 10@L4@Main
Codec ID                                : V_MPEGH/ISO/HEVC
Duration                                : 2h 45mn
Bit rate                                : 5 490 Kbps
Width                                    : 1 920 pixels
Height                                  : 800 pixels
Display aspect ratio                    : 2.40:1
Frame rate mode                          : Constant
Frame rate                              : 23.976 (24000/1001) fps
Color space                              : YUV
Chroma subsampling                      : 4:2:0
Bit depth                                : 10 bits
Bits/(Pixel*Frame)                      : 0.149
Stream size                              : 6.33 GiB (88%)
Title                                    : FHD - Filmbol.org
Writing library                          : x265 3.0_Au+24-4217e691387c:[Windows][GCC 9.1.1][64 bit] 10bit
Encoding settings                        : rc=crf / crf=21.5000 / qcomp=0.60 / qpstep=4 / stats-write=0 / stats-read=0 / qpmax=69 / qpmin=0 / no-lossless / no-cu-lossless / no-hevc-aq / no-aq-motion / aq-mode=3 / aq-strength=1.00 / cbqpoffs=0 / crqpoffs=0 / ipratio=1.40 / pbratio=1.30 / psy-rd=0.00 / psy-rdoq=1.00 / deblock=-2:-2 / ref=4 / limit-refs=3 / limit-modes / bframes=8 / b-adapt=2 / bframe-bias=20 / b-pyramid / no-b-intra / weightp / no-weightb / keyint=250 / min-keyint=23 / rc-lookahead=80 / gop-lookahead=0 / scenecut=40 / scenecut-bias=0.05 / ctu=64 / min-cu-size=8 / me=3 / subme=5 / merange=57 / rd=4 / no-rd-refine / ssim-rd / dynamic-rd=0.00 / rdoq-level=2 / rdpenalty=0 / cutree / sao / no-limit-sao / sao-non-deblock / rect / no-amp / open-gop / max-tu-size=32 / tu-inter-depth=1 / tu-intra-depth=1 / limit-tu=0 / qg-size=32 / wpp / no-pmode / no-pme / no-psnr / ssim / no-tskip / constrained-intra / strong-intra-smoothing / max-merge=5 / nr-intra=0 / nr-inter=0 / input-csp=1 / input-res=1920x800 / interlace=0 / total-frames=237537 / level-idc=0 / high-tier=1cpuid=1111039 / frame-threads=3 / numa-pools=12 / log-level=2 / uhd-bd=0 / lookahead-slices=4 / radl=0 / no-splice / no-intra-refresh / signhide / temporal-mvp / no-analyze-src-pics / early-skip / rskip / no-fast-intra / no-tskip-fast / no-splitrd-skip / zone-count=0 / no-strict-cbr / no-rc-grain / no-const-vbv / no-allow-non-conformance / no-repeat-headers / annexb / no-aud / no-hrd / info / hash=0 / no-temporal-layers / sar=0 / overscan=0 / videoformat=5 / range=0 / colorprim=2 / transfer=2 / colormatrix=2 / chromaloc=0 / display-window=0 / max-cll=0,0 / min-luma=0 / max-luma=1023 / log2-max-poc-lsb=8 / vui-timing-info / vui-hrd-info / slices=1 / no-opt-qp-pps / no-opt-ref-list-length-pps / no-multi-pass-opt-rps / no-opt-cu-delta-qp / no-hdr / no-hdr-opt / no-dhdr10-opt / no-idr-recovery-sei / analysis-reuse-level=5 / scale-factor=0 / refine-intra=0 / refine-inter=0 / refine-mv=0 / refine-ctu-distortion=0 / ctu-info=0 / no-lowpass-dct / refine-analysis-type=0 / copy-pic=1 / max-ausize-factor=1.0 / no-dynamic-refine / no-single-sei / no-svt / qp-adaptation-range=1.00
Default                                  : Yes
Forced                                  : No

Audio #1
ID                                      : 2
Format                                  : AC-3
Format/Info                              : Audio Coding 3
Mode extension                          : CM (complete main)
Format settings, Endianness              : Big
Codec ID                                : A_AC3
Duration                                : 2h 45mn
Bit rate mode                            : Constant
Bit rate                                : 640 Kbps
Channel(s)                              : 6 channels
Channel positions                        : Front: L C R, Side: L R, LFE
Sampling rate                            : 48.0 KHz
Frame rate                              : 31.250 fps (1536 spf)
Compression mode                        : Lossy
Stream size                              : 756 MiB (10%)
Title                                    : Türkçe - Filmbol.org
Language                                : Turkish
Default                                  : Yes
Forced                                  : Yes

Audio #2
ID                                      : 3
Format                                  : AAC
Format/Info                              : Advanced Audio Codec
Format profile                          : LC
Codec ID                                : A_AAC
Duration                                : 2h 45mn
Bit rate                                : 93.7 Kbps
Channel(s)                              : 2 channels
Channel positions                        : Front: L R
Sampling rate                            : 48.0 KHz
Frame rate                              : 46.875 fps (1024 spf)
Compression mode                        : Lossy
Stream size                              : 111 MiB (2%)
Title                                    : İngilizce - Filmbol.org
Language                                : English
Default                                  : No
Forced                                  : No

Text
ID                                      : 4
Format                                  : UTF-8
Codec ID                                : S_TEXT/UTF8
Codec ID/Info                            : UTF-8 Plain Text
Duration                                : 2h 36mn
Bit rate                                : 65 bps
Count of elements                        : 1889
Stream size                              : 74.9 KiB (0%)
Language                                : Turkish
Default                                  : No
Forced                                  : No

Film Detayları


<p><img style="height: 100%; max-height: 400px; weight: auto; display: block; margin-left: auto; margin-right: auto;" src="//www.filmbol.org/wp-content/uploads/2020/06/transformers-kayip-cag-01.webp" alt=" Transformers: Kayıp Çağ " width="750" height="400" /></p><p><img style="height: 100%; max-height: 400px; weight: auto; display: block; margin-left: auto; margin-right: auto;" src="//www.filmbol.org/wp-content/uploads/2020/06/transformers-kayip-cag-02.webp" alt=" Transformers: Kayıp Çağ " width="750" height="400" /></p><p><img style="height: 100%; max-height: 400px; weight: auto; display: block; margin-left: auto; margin-right: auto;" src="//www.filmbol.org/wp-content/uploads/2020/06/transformers-kayip-cag-03.webp" alt=" Transformers: Kayıp Çağ " width="750" height="400" /></p>

Film Fragmanı


Film Detayları

Uptobox ile indir

1Fichier ile indir

1Fichier'den İndiremiyor musun? Tıklayın!


Mega ile indir

Bunun için üzgünüz ancak, bu linke sadece premium üyeler erişebilir.

Filmbol Cloud

, Saat: 23:16
Yorumlar : 0 • Okunma : 25

Vizyon Tarihi


27 Haziran 2014

imdb puanı


5,6 / 300,000

süre


165 dakika

Editör Puanı


7,2 / 10

Video Format: Mkv


Matroska (.MKV)

Ses Kodek: AC3


Audio Coding 3 (AC3)

sürüm


x264 | 1080P | BluRay

Boyutlar


3,00 GB


<br /><center><p><img style="height: 100%; max-height: 400px; weight: auto; display: block; margin-left: auto; margin-right: auto;" src="//www.filmbol.org/wp-content/uploads/2020/06/transformers-kayip-cag-04.webp" alt=" Transformers: Kayıp Çağ " width="273" height="400" /></p></center>

Autobot ve Decepticon'lar arasında yaşanan son savaşın ardından dört yıl geçer. Savaşta Chicago şehri yerle bir edilmiş ve binlerce insan öldürülmüş olsa da dünya ve insanlık büyük bir tehditten kurtulmuş olur. İnsanlık yaralarını sarmaya çalışırken Amerikan hükümeti de Autobotlar ile arasındaki ilişkiye iyice koparmış, hatta hayatta kalanları yok etmeleri için CIA'de özel bir birim dahi kurulmuştur. Teksas'ta kendi halinde bir tamirci olan Cade Yeager, eline geçen hasarlı bir kamyoneti, parçalarını satma umuduyla kabul eder. Ne var ki bu kamyonetin yaralı bir Optimus Prime'dan başkası olmadığını anlaması uzun sürmez. Optimus Prime'dan aldıkları sinyallerle yola çıkan CIA ajanlarıyla başının derde girmesi de çok yakındır. Cade Yeager bir şekilde Optimus Prime'ı Chicago'ya ulaştırmak ve diğer Autobotlar ile iletişime geçmesini sağlamak zorundadır. Zira dünyayı tehdit eden güçlü bir düşman yola çıkmak üzeredir. Optimus Prime ve Autobotlar, Cade Yeager başta olmak üzere kendilerine destek olan insan topluluğunun yardımıyla başlarına gelen en korkutucu düşmanla yüzleşmek zorundadır...
<p style="text-align: center;"><strong>Transformers: Kayıp Çağ (2014) (Transformers: Age of Extinction)</strong> Filmi Imdb'den 300,000 kişi tarafından oylandı ve 5,6 puan aldı. Bu film için editör puanı 7,2 olarak belirlendi. İyi Seyirler!</p>
Teknik Detaylar

Kod :
General
Unique ID                                : 195446431719880714230230423149021970685 (0x93099D10C7BA6D6E03615DD02F9340FD)
Complete name                            : /root/Desktop/7/Transformers.Kayıp.Çağ.2014.1080p.BluRay.x264.TR.ENG.Filmbol.mkv
Format                                  : Matroska
Format version                          : Version 4 / Version 2
File size                                : 3.00 GiB
Duration                                : 2h 45mn
Overall bit rate                        : 2 600 Kbps
Movie name                              : Transformers: Kayıp Çağ - Transformers: Age of Extinction - 2014 | Filmbol.org
Encoded date                            : UTC 2020-05-29 16:39:10
Writing application                      : mkvmerge v8.8.0 ('Wind at my back') 64bit
Writing library                          : libebml v1.3.3 + libmatroska v1.4.4

Video
ID                                      : 1
Format                                  : AVC
Format/Info                              : Advanced Video Codec
Format profile                          : High@L4.1
Format settings, CABAC                  : Yes
Format settings, ReFrames                : 4 frames
Codec ID                                : V_MPEG4/ISO/AVC
Duration                                : 2h 45mn
Bit rate                                : 1 864 Kbps
Width                                    : 1 920 pixels
Height                                  : 800 pixels
Display aspect ratio                    : 2.40:1
Frame rate mode                          : Constant
Frame rate                              : 23.976 (24000/1001) fps
Original frame rate                      : 23.976 (23976/1000) fps
Color space                              : YUV
Chroma subsampling                      : 4:2:0
Bit depth                                : 8 bits
Scan type                                : Progressive
Bits/(Pixel*Frame)                      : 0.051
Stream size                              : 2.15 GiB (72%)
Title                                    : 1080P - Filmbol.org
Writing library                          : x264 core 142 r2409 d6b4e63
Encoding settings                        : cabac=1 / ref=4 / deblock=1:-1:-1 / analyse=0x3:0x133 / me=umh / subme=9 / psy=1 / psy_rd=1.00:0.15 / mixed_ref=1 / me_range=24 / chroma_me=1 / trellis=2 / 8x8dct=1 / cqm=0 / deadzone=21,11 / fast_pskip=0 / chroma_qp_offset=-3 / threads=60 / lookahead_threads=5 / sliced_threads=0 / nr=0 / decimate=1 / interlaced=0 / bluray_compat=0 / constrained_intra=0 / bframes=3 / b_pyramid=2 / b_adapt=2 / b_bias=0 / direct=3 / weightb=1 / open_gop=0 / weightp=2 / keyint=250 / keyint_min=23 / scenecut=40 / intra_refresh=0 / rc_lookahead=60 / rc=2pass / mbtree=1 / bitrate=1864 / ratetol=1.0 / qcomp=0.60 / qpmin=0 / qpmax=69 / qpstep=4 / cplxblur=20.0 / qblur=0.5 / vbv_maxrate=31250 / vbv_bufsize=31250 / nal_hrd=none / filler=0 / ip_ratio=1.40 / aq=1:1.00
Default                                  : Yes
Forced                                  : No
Color range                              : Limited
Color primaries                          : BT.709
Matrix coefficients                      : BT.709

Audio #1
ID                                      : 2
Format                                  : AC-3
Format/Info                              : Audio Coding 3
Mode extension                          : CM (complete main)
Format settings, Endianness              : Big
Codec ID                                : A_AC3
Duration                                : 2h 45mn
Bit rate mode                            : Constant
Bit rate                                : 640 Kbps
Channel(s)                              : 6 channels
Channel positions                        : Front: L C R, Side: L R, LFE
Sampling rate                            : 48.0 KHz
Frame rate                              : 31.250 fps (1536 spf)
Compression mode                        : Lossy
Stream size                              : 756 MiB (25%)
Title                                    : Türkçe - Filmbol.org
Language                                : Turkish
Default                                  : Yes
Forced                                  : Yes

Audio #2
ID                                      : 3
Format                                  : AAC
Format/Info                              : Advanced Audio Codec
Format profile                          : LC
Codec ID                                : A_AAC
Duration                                : 2h 45mn
Bit rate                                : 93.7 Kbps
Channel(s)                              : 2 channels
Channel positions                        : Front: L R
Sampling rate                            : 48.0 KHz
Frame rate                              : 46.875 fps (1024 spf)
Compression mode                        : Lossy
Stream size                              : 111 MiB (4%)
Title                                    : İngilizce - Filmbol.org
Language                                : English
Default                                  : No
Forced                                  : No

Film Detayları


<p><img style="height: 100%; max-height: 400px; weight: auto; display: block; margin-left: auto; margin-right: auto;" src="//www.filmbol.org/wp-content/uploads/2020/06/transformers-kayip-cag-01.webp" alt=" Transformers: Kayıp Çağ " width="750" height="400" /></p><p><img style="height: 100%; max-height: 400px; weight: auto; display: block; margin-left: auto; margin-right: auto;" src="//www.filmbol.org/wp-content/uploads/2020/06/transformers-kayip-cag-02.webp" alt=" Transformers: Kayıp Çağ " width="750" height="400" /></p><p><img style="height: 100%; max-height: 400px; weight: auto; display: block; margin-left: auto; margin-right: auto;" src="//www.filmbol.org/wp-content/uploads/2020/06/transformers-kayip-cag-03.webp" alt=" Transformers: Kayıp Çağ " width="750" height="400" /></p>

Film Fragmanı


Film Detayları

Uptobox ile indir

1Fichier ile indir

1Fichier'den İndiremiyor musun? Tıklayın!


Mega ile indir

Bunun için üzgünüz ancak, bu linke sadece premium üyeler erişebilir.

Filmbol Cloud

, Saat: 23:15
Yorumlar : 0 • Okunma : 22

Vizyon Tarihi


27 Haziran 2014

imdb puanı


5,6 / 300,000

süre


165 dakika

Editör Puanı


7,2 / 10

Video Format: Mkv


Matroska (.MKV)

Ses Kodek: AC3


Audio Coding 3 (AC3)

sürüm


x264 | 720P | BluRay

Boyutlar


1,71 GB


<br /><center><p><img style="height: 100%; max-height: 400px; weight: auto; display: block; margin-left: auto; margin-right: auto;" src="//www.filmbol.org/wp-content/uploads/2020/06/transformers-kayip-cag-04.webp" alt=" Transformers: Kayıp Çağ " width="273" height="400" /></p></center>

Autobot ve Decepticon'lar arasında yaşanan son savaşın ardından dört yıl geçer. Savaşta Chicago şehri yerle bir edilmiş ve binlerce insan öldürülmüş olsa da dünya ve insanlık büyük bir tehditten kurtulmuş olur. İnsanlık yaralarını sarmaya çalışırken Amerikan hükümeti de Autobotlar ile arasındaki ilişkiye iyice koparmış, hatta hayatta kalanları yok etmeleri için CIA'de özel bir birim dahi kurulmuştur. Teksas'ta kendi halinde bir tamirci olan Cade Yeager, eline geçen hasarlı bir kamyoneti, parçalarını satma umuduyla kabul eder. Ne var ki bu kamyonetin yaralı bir Optimus Prime'dan başkası olmadığını anlaması uzun sürmez. Optimus Prime'dan aldıkları sinyallerle yola çıkan CIA ajanlarıyla başının derde girmesi de çok yakındır. Cade Yeager bir şekilde Optimus Prime'ı Chicago'ya ulaştırmak ve diğer Autobotlar ile iletişime geçmesini sağlamak zorundadır. Zira dünyayı tehdit eden güçlü bir düşman yola çıkmak üzeredir. Optimus Prime ve Autobotlar, Cade Yeager başta olmak üzere kendilerine destek olan insan topluluğunun yardımıyla başlarına gelen en korkutucu düşmanla yüzleşmek zorundadır...
<p style="text-align: center;"><strong>Transformers: Kayıp Çağ (2014) (Transformers: Age of Extinction)</strong> Filmi Imdb'den 300,000 kişi tarafından oylandı ve 5,6 puan aldı. Bu film için editör puanı 7,2 olarak belirlendi. İyi Seyirler!</p>
Teknik Detaylar

Kod :
General
Unique ID                                : 156637096818686117708423184377314441502 (0x75D7351FCD20AF720FF5BD196202791E)
Complete name                            : /root/Desktop/7/Transformers.Kayıp.Çağ.2014.720p.BluRay.x264.TR.ENG.Filmbol.mkv
Format                                  : Matroska
Format version                          : Version 4 / Version 2
File size                                : 1.71 GiB
Duration                                : 2h 45mn
Overall bit rate                        : 1 481 Kbps
Movie name                              : Transformers: Kayıp Çağ - Transformers: Age of Extinction - 2014 | Filmbol.org
Encoded date                            : UTC 2020-05-29 16:35:28
Writing application                      : mkvmerge v8.8.0 ('Wind at my back') 64bit
Writing library                          : libebml v1.3.3 + libmatroska v1.4.4

Video
ID                                      : 1
Format                                  : AVC
Format/Info                              : Advanced Video Codec
Format profile                          : High@L4.1
Format settings, CABAC                  : Yes
Format settings, ReFrames                : 4 frames
Codec ID                                : V_MPEG4/ISO/AVC
Duration                                : 2h 45mn
Bit rate                                : 745 Kbps
Width                                    : 1 280 pixels
Height                                  : 536 pixels
Display aspect ratio                    : 2.40:1
Frame rate mode                          : Constant
Frame rate                              : 23.976 (24000/1001) fps
Original frame rate                      : 23.976 (23976/1000) fps
Color space                              : YUV
Chroma subsampling                      : 4:2:0
Bit depth                                : 8 bits
Scan type                                : Progressive
Bits/(Pixel*Frame)                      : 0.045
Stream size                              : 880 MiB (50%)
Title                                    : 720P - Filmbol.org
Writing library                          : x264 core 142 r2409 d6b4e63
Encoding settings                        : cabac=1 / ref=4 / deblock=1:-1:-1 / analyse=0x3:0x133 / me=umh / subme=9 / psy=1 / psy_rd=1.00:0.15 / mixed_ref=1 / me_range=24 / chroma_me=1 / trellis=2 / 8x8dct=1 / cqm=0 / deadzone=21,11 / fast_pskip=0 / chroma_qp_offset=-3 / threads=60 / lookahead_threads=4 / sliced_threads=0 / nr=0 / decimate=1 / interlaced=0 / bluray_compat=0 / constrained_intra=0 / bframes=3 / b_pyramid=2 / b_adapt=2 / b_bias=0 / direct=3 / weightb=1 / open_gop=0 / weightp=2 / keyint=250 / keyint_min=23 / scenecut=40 / intra_refresh=0 / rc_lookahead=60 / rc=2pass / mbtree=1 / bitrate=745 / ratetol=1.0 / qcomp=0.60 / qpmin=0 / qpmax=69 / qpstep=4 / cplxblur=20.0 / qblur=0.5 / vbv_maxrate=31250 / vbv_bufsize=31250 / nal_hrd=none / filler=0 / ip_ratio=1.40 / aq=1:1.00
Default                                  : Yes
Forced                                  : No
Color range                              : Limited
Color primaries                          : BT.709
Matrix coefficients                      : BT.709

Audio #1
ID                                      : 2
Format                                  : AC-3
Format/Info                              : Audio Coding 3
Mode extension                          : CM (complete main)
Format settings, Endianness              : Big
Codec ID                                : A_AC3
Duration                                : 2h 45mn
Bit rate mode                            : Constant
Bit rate                                : 640 Kbps
Channel(s)                              : 6 channels
Channel positions                        : Front: L C R, Side: L R, LFE
Sampling rate                            : 48.0 KHz
Frame rate                              : 31.250 fps (1536 spf)
Compression mode                        : Lossy
Stream size                              : 756 MiB (43%)
Title                                    : Türkçe - Filmbol.org
Language                                : Turkish
Default                                  : Yes
Forced                                  : Yes

Audio #2
ID                                      : 3
Format                                  : AAC
Format/Info                              : Advanced Audio Codec
Format profile                          : LC
Codec ID                                : A_AAC
Duration                                : 2h 45mn
Bit rate                                : 93.7 Kbps
Channel(s)                              : 2 channels
Channel positions                        : Front: L R
Sampling rate                            : 48.0 KHz
Frame rate                              : 46.875 fps (1024 spf)
Compression mode                        : Lossy
Stream size                              : 111 MiB (6%)
Title                                    : İngilizce - Filmbol.org
Language                                : English
Default                                  : No
Forced                                  : No

Film Detayları


<p><img style="height: 100%; max-height: 400px; weight: auto; display: block; margin-left: auto; margin-right: auto;" src="//www.filmbol.org/wp-content/uploads/2020/06/transformers-kayip-cag-01.webp" alt=" Transformers: Kayıp Çağ " width="750" height="400" /></p><p><img style="height: 100%; max-height: 400px; weight: auto; display: block; margin-left: auto; margin-right: auto;" src="//www.filmbol.org/wp-content/uploads/2020/06/transformers-kayip-cag-02.webp" alt=" Transformers: Kayıp Çağ " width="750" height="400" /></p><p><img style="height: 100%; max-height: 400px; weight: auto; display: block; margin-left: auto; margin-right: auto;" src="//www.filmbol.org/wp-content/uploads/2020/06/transformers-kayip-cag-03.webp" alt=" Transformers: Kayıp Çağ " width="750" height="400" /></p>

Film Fragmanı


Film Detayları

Uptobox ile indir

1Fichier ile indir

1Fichier'den İndiremiyor musun? Tıklayın!


Mega ile indir

Bunun için üzgünüz ancak, bu linke sadece premium üyeler erişebilir.

Filmbol Cloud

, Saat: 23:15
Yorumlar : 0 • Okunma : 23

Vizyon Tarihi


27 Haziran 2014

imdb puanı


5,6 / 300,000

süre


165 dakika

Editör Puanı


7,2 / 10

Video Format: Avi


Audio Video Interleave (.AVI)

Ses Kodek: MP3


MPEG-1 Audio Layer III (MP3)

sürüm


h263 | BRRip XviD

Boyutlar


1,36 GB


<br /><center><p><img style="height: 100%; max-height: 400px; weight: auto; display: block; margin-left: auto; margin-right: auto;" src="//www.filmbol.org/wp-content/uploads/2020/06/transformers-kayip-cag-04.webp" alt=" Transformers: Kayıp Çağ " width="273" height="400" /></p></center>

Autobot ve Decepticon'lar arasında yaşanan son savaşın ardından dört yıl geçer. Savaşta Chicago şehri yerle bir edilmiş ve binlerce insan öldürülmüş olsa da dünya ve insanlık büyük bir tehditten kurtulmuş olur. İnsanlık yaralarını sarmaya çalışırken Amerikan hükümeti de Autobotlar ile arasındaki ilişkiye iyice koparmış, hatta hayatta kalanları yok etmeleri için CIA'de özel bir birim dahi kurulmuştur. Teksas'ta kendi halinde bir tamirci olan Cade Yeager, eline geçen hasarlı bir kamyoneti, parçalarını satma umuduyla kabul eder. Ne var ki bu kamyonetin yaralı bir Optimus Prime'dan başkası olmadığını anlaması uzun sürmez. Optimus Prime'dan aldıkları sinyallerle yola çıkan CIA ajanlarıyla başının derde girmesi de çok yakındır. Cade Yeager bir şekilde Optimus Prime'ı Chicago'ya ulaştırmak ve diğer Autobotlar ile iletişime geçmesini sağlamak zorundadır. Zira dünyayı tehdit eden güçlü bir düşman yola çıkmak üzeredir. Optimus Prime ve Autobotlar, Cade Yeager başta olmak üzere kendilerine destek olan insan topluluğunun yardımıyla başlarına gelen en korkutucu düşmanla yüzleşmek zorundadır...
<p style="text-align: center;"><strong>Transformers: Kayıp Çağ (2014) (Transformers: Age of Extinction)</strong> Filmi Imdb'den 300,000 kişi tarafından oylandı ve 5,6 puan aldı. Bu film için editör puanı 7,2 olarak belirlendi. İyi Seyirler!</p>
Teknik Detaylar

Kod :
General
Complete name                            : /root/Desktop/7/Transformers.Kayıp.Çap.2014.BRRip.XviD.TR.Filmbol
Format                                  : AVI
Format/Info                              : Audio Video Interleave
Format profile                          : OpenDML
Format settings                          : rec
File size                                : 1.36 GiB
Duration                                : 2h 45mn
Overall bit rate                        : 1 178 Kbps
Writing application                      : AVI-Mux GUI 1.17.8.3, Feb 16 201019:42:50

Video
ID                                      : 0
Format                                  : MPEG-4 Visual
Format profile                          : Advanced Simple@L5
Format settings, BVOP                    : 2
Format settings, QPel                    : No
Format settings, GMC                    : No warppoints
Format settings, Matrix                  : Default (H.263)
Codec ID                                : XVID
Codec ID/Hint                            : XviD
Duration                                : 2h 45mn
Bit rate                                : 1 047 Kbps
Width                                    : 656 pixels
Height                                  : 272 pixels
Display aspect ratio                    : 2.40:1
Frame rate                              : 23.976 (24000/1001) fps
Color space                              : YUV
Chroma subsampling                      : 4:2:0
Bit depth                                : 8 bits
Scan type                                : Progressive
Compression mode                        : Lossy
Bits/(Pixel*Frame)                      : 0.245
Stream size                              : 1.21 GiB (89%)
Writing library                          : XviD 1.2.1 (UTC 2008-12-04)

Audio
ID                                      : 1
Format                                  : MPEG Audio
Format version                          : Version 1
Format profile                          : Layer 3
Mode                                    : Joint stereo
Mode extension                          : MS Stereo
Codec ID                                : 55
Codec ID/Hint                            : MP3
Duration                                : 2h 45mn
Bit rate mode                            : Constant
Bit rate                                : 128 Kbps
Channel(s)                              : 2 channels
Sampling rate                            : 48.0 KHz
Compression mode                        : Lossy
Stream size                              : 151 MiB (11%)
Alignment                                : Aligned on interleaves
Interleave, duration                    : 715 ms (17.15 video frames)
Interleave, preload duration            : 216 ms
Title                                    : Transformers.2014.TR
Writing library                          : LAME3.99r
Encoding settings                        : -m j -V 4 -q 2 -lowpass 17 -b 128

Film Detayları


<p><img style="height: 100%; max-height: 400px; weight: auto; display: block; margin-left: auto; margin-right: auto;" src="//www.filmbol.org/wp-content/uploads/2020/06/transformers-kayip-cag-01.webp" alt=" Transformers: Kayıp Çağ " width="750" height="400" /></p><p><img style="height: 100%; max-height: 400px; weight: auto; display: block; margin-left: auto; margin-right: auto;" src="//www.filmbol.org/wp-content/uploads/2020/06/transformers-kayip-cag-02.webp" alt=" Transformers: Kayıp Çağ " width="750" height="400" /></p><p><img style="height: 100%; max-height: 400px; weight: auto; display: block; margin-left: auto; margin-right: auto;" src="//www.filmbol.org/wp-content/uploads/2020/06/transformers-kayip-cag-03.webp" alt=" Transformers: Kayıp Çağ " width="750" height="400" /></p>

Film Fragmanı


Film Detayları


Uptobox ile indir

1Fichier ile indir

1Fichier'den İndiremiyor musun? Tıklayın!


Mega ile indir

Bunun için üzgünüz ancak, bu linke sadece premium üyeler erişebilir.

Filmbol Cloud

, Saat: 22:55
Yorumlar : 0 • Okunma : 22

Vizyon Tarihi


27 Kasım 2019

imdb puanı


7,0 / 15,000

süre


132 dakika

Editör Puanı


6,8 / 10

Video Format: Mkv


Matroska (.MKV)

Ses Kodek: AC3


Audio Coding 3 (AC3)

sürüm


x265 | 4K | ULTRA HD x265

Boyutlar


11,0 GB


<br /><center><p><img style="height: 100%; max-height: 400px; weight: auto; display: block; margin-left: auto; margin-right: auto;" src="//www.filmbol.org/wp-content/uploads/2020/06/quenn-and-slim-04.webp" alt=" Queen & Slim " width="273" height="400" /></p></center>

Siyahi bir adam ile kadın yolları kesişmeleri sonucu tanışırlar. Beraber takılmaya başladıktan bir süre sonra yanlarına bir polis yaklaşır ve trafik ihlali gerekçesiyle ceza kesmeye çalışır. Bu sırada bir tartışma alevlenir ve bu tartışma kavgaya dönüşür. Siyahi adam son çare olarak istemeden polisi öldürür ve bir anda yeni tanışan çift, iki yeni suçlu haline dönüşür...
<p style="text-align: center;"><strong>Queen & Slim (2019) (Queen ve Slim)</strong> Filmi Imdb'den 15,000 kişi tarafından oylandı ve 7,0 puan aldı. Bu film için editör puanı 6,8 olarak belirlendi. İyi Seyirler!</p>
Teknik Detaylar

Kod :
General
Unique ID                                : 48167000825009932351077249652178144609 (0x243CA07DF629E7BC7FEC45FF8EB5CD61)
Complete name                            : /root/Desktop/8/Queen.&.Slim.2019.UHD.4K.BluRay.x265.10Bit.TR.ENG.Filmbol.mkv
Format                                  : Matroska
Format version                          : Version 4 / Version 2
File size                                : 11.0 GiB
Duration                                : 2h 12mn
Overall bit rate                        : 11.9 Mbps
Movie name                              : Quenn & Slim - 2019 | Filmbol.org
Encoded date                            : UTC 2020-05-29 17:59:43
Writing application                      : mkvmerge v8.8.0 ('Wind at my back') 64bit
Writing library                          : libebml v1.3.3 + libmatroska v1.4.4

Video
ID                                      : 1
Format                                  : HEVC
Format/Info                              : High Efficiency Video Coding
Format profile                          : Main 10@L5.1@High
Codec ID                                : V_MPEGH/ISO/HEVC
Duration                                : 2h 12mn
Bit rate                                : 10.9 Mbps
Width                                    : 3 840 pixels
Height                                  : 1 608 pixels
Display aspect ratio                    : 2.40:1
Frame rate mode                          : Constant
Frame rate                              : 23.976 (24000/1001) fps
Color space                              : YUV
Chroma subsampling                      : 4:2:0
Bit depth                                : 10 bits
Bits/(Pixel*Frame)                      : 0.073
Stream size                              : 10.0 GiB (91%)
Title                                    : Filmbol.org
Writing library                          : x265 3.3+2-gbe2d82093:[Windows][GCC 10.0.1][64 bit] 10bit
Encoding settings                        : cpuid=1111039 / frame-threads=5 / numa-pools=36 / wpp / no-pmode / no-pme / no-psnr / no-ssim / log-level=2 / input-csp=1 / input-res=3840x1608 / interlace=0 / total-frames=190445 / level-idc=51 / high-tier=1 / uhd-bd=0 / ref=4 / no-allow-non-conformance / repeat-headers / annexb / aud / hrd / info / hash=0 / no-temporal-layers / no-open-gop / min-keyint=1 / keyint=24 / gop-lookahead=0 / bframes=4 / b-adapt=2 / b-pyramid / bframe-bias=0 / rc-lookahead=25 / lookahead-slices=4 / scenecut=40 / hist-scenecut=0 / radl=0 / no-splice / no-intra-refresh / ctu=64 / min-cu-size=8 / rect / no-amp / max-tu-size=32 / tu-inter-depth=1 / tu-intra-depth=1 / limit-tu=0 / rdoq-level=2 / dynamic-rd=0.00 / no-ssim-rd / signhide / no-tskip / nr-intra=0 / nr-inter=0 / no-constrained-intra / no-strong-intra-smoothing / max-merge=3 / limit-refs=3 / limit-modes / me=3 / subme=3 / merange=57 / temporal-mvp / no-frame-dup / no-hme / weightp / no-weightb / no-analyze-src-pics / deblock=-3:-3 / no-sao / no-sao-non-deblock / rd=4 / selective-sao=0 / no-early-skip / rskip / no-fast-intra / no-tskip-fast / no-cu-lossless / no-b-intra / no-splitrd-skip / rdpenalty=0 / psy-rd=2.00 / psy-rdoq=1.00 / no-rd-refine / no-lossless / cbqpoffs=0 / crqpoffs=0 / rc=crf / crf=17.0 / qcomp=0.60 / qpstep=4 / stats-write=0 / stats-read=0 / vbv-maxrate=160000 / vbv-bufsize=160000 / vbv-init=0.9 / crf-max=0.0 / crf-min=0.0 / ipratio=1.40 / pbratio=1.30 / aq-mode=2 / aq-strength=1.00 / cutree / zone-count=0 / no-strict-cbr / qg-size=32 / no-rc-grain / qpmax=69 / qpmin=0 / no-const-vbv / sar=1 / overscan=0 / videoformat=5 / range=0 / colorprim=9 / transfer=16 / colormatrix=9 / chromaloc=1 / chromaloc-top=2 / chromaloc-bottom=2 / display-window=0 / master-display=G(13250,34500)B(7500,3000)R(34000,16000)WP(15635,16450)L(10000000,50) / cll=614,67 / min-luma=0 / max-luma=1023 / log2-max-poc-lsb=8 / vui-timing-info / vui-hrd-info / slices=1 / no-opt-qp-pps / no-opt-ref-list-length-pps / no-multi-pass-opt-rps / scenecut-bias=0.05 / hist-threshold=0.01 / no-opt-cu-delta-qp / no-aq-motion / hdr10 / hdr10-opt / no-dhdr10-opt / no-idr-recovery-sei / analysis-reuse-level=0 / analysis-save-reuse-level=0 / analysis-load-reuse-level=0 / scale-factor=0 / refine-intra=0 / refine-inter=0 / refine-mv=1 / refine-ctu-distortion=0 / no-limit-sao / ctu-info=0 / no-lowpass-dct / refine-analysis-type=0 / copy-pic=1 / max-ausize-factor=1.0 / no-dynamic-refine / no-single-sei / no-hevc-aq / no-svt / no-field / qp-adaptation-range=1.00 / no-scenecut-aware-qpconformance-window-offsets / right=0 / bottom=0
Default                                  : Yes
Forced                                  : No
Color range                              : Limited
Color primaries                          : BT.2020
Matrix coefficients                      : BT.2020 non-constant

Audio #1
ID                                      : 2
Format                                  : AC-3
Format/Info                              : Audio Coding 3
Mode extension                          : CM (complete main)
Format settings, Endianness              : Big
Codec ID                                : A_AC3
Duration                                : 2h 12mn
Bit rate mode                            : Constant
Bit rate                                : 384 Kbps
Channel(s)                              : 6 channels
Channel positions                        : Front: L C R, Side: L R, LFE
Sampling rate                            : 48.0 KHz
Frame rate                              : 31.250 fps (1536 spf)
Compression mode                        : Lossy
Stream size                              : 364 MiB (3%)
Title                                    : www.limitsizamca.net
Language                                : Turkish
Default                                  : Yes
Forced                                  : No

Audio #2
ID                                      : 3
Format                                  : AC-3
Format/Info                              : Audio Coding 3
Mode extension                          : CM (complete main)
Format settings, Endianness              : Big
Codec ID                                : A_AC3
Duration                                : 2h 12mn
Bit rate mode                            : Constant
Bit rate                                : 640 Kbps
Channel(s)                              : 6 channels
Channel positions                        : Front: L C R, Side: L R, LFE
Sampling rate                            : 48.0 KHz
Frame rate                              : 31.250 fps (1536 spf)
Compression mode                        : Lossy
Stream size                              : 606 MiB (5%)
Title                                    : www.limitsizamca.net
Language                                : English
Default                                  : No
Forced                                  : No

Text #1
ID                                      : 4
Format                                  : UTF-8
Codec ID                                : S_TEXT/UTF8
Codec ID/Info                            : UTF-8 Plain Text
Duration                                : 2h 6mn
Bit rate                                : 0 bps
Count of elements                        : 12
Stream size                              : 289 Bytes (0%)
Title                                    : FORCED
Language                                : Turkish
Default                                  : Yes
Forced                                  : Yes

Text #2
ID                                      : 5
Format                                  : UTF-8
Codec ID                                : S_TEXT/UTF8
Codec ID/Info                            : UTF-8 Plain Text
Duration                                : 2h 11mn
Bit rate                                : 40 bps
Count of elements                        : 1397
Stream size                              : 38.8 KiB (0%)
Title                                    : TAM
Language                                : Turkish
Default                                  : No
Forced                                  : No

Film Detayları


<p><img style="height: 100%; max-height: 400px; weight: auto; display: block; margin-left: auto; margin-right: auto;" src="//www.filmbol.org/wp-content/uploads/2020/06/quenn-and-slim-01.webp" alt=" Queen & Slim " width="750" height="400" /></p><p><img style="display: block; margin-left: auto; margin-right: auto;" src="//www.filmbol.org/wp-content/uploads/2020/06/quenn-and-slim-02.webp" alt=" Queen & Slim " width="750" height="400" /></p><p><img style="height: 100%; max-height: 400px; weight: auto; display: block; margin-left: auto; margin-right: auto;" src="//www.filmbol.org/wp-content/uploads/2020/06/quenn-and-slim-03.webp" alt=" Queen & Slim " width="750" height="400" /></p>

Film Fragmanı


Film Detayları

Uptobox ile indir

1Fichier ile indir

1Fichier'den İndiremiyor musun? Tıklayın!


Mega ile indir

Bunun için üzgünüz ancak, bu linke sadece premium üyeler erişebilir.

Filmbol Cloud

, Saat: 22:54
Yorumlar : 0 • Okunma : 24

Vizyon Tarihi


27 Kasım 2019

imdb puanı


7,0 / 15,000

süre


132 dakika

Editör Puanı


6,8 / 10

Video Format: Mkv


Matroska (.MKV)

Ses Kodek: AC3


Audio Coding 3 (AC3)

sürüm


x264|BluRay

Boyutlar


2,61 GB


<br /><center><p><img style="height: 100%; max-height: 400px; weight: auto; display: block; margin-left: auto; margin-right: auto;" src="//www.filmbol.org/wp-content/uploads/2020/06/quenn-and-slim-04.webp" alt=" Queen & Slim " width="273" height="400" /></p></center>

Siyahi bir adam ile kadın yolları kesişmeleri sonucu tanışırlar. Beraber takılmaya başladıktan bir süre sonra yanlarına bir polis yaklaşır ve trafik ihlali gerekçesiyle ceza kesmeye çalışır. Bu sırada bir tartışma alevlenir ve bu tartışma kavgaya dönüşür. Siyahi adam son çare olarak istemeden polisi öldürür ve bir anda yeni tanışan çift, iki yeni suçlu haline dönüşür...
<p style="text-align: center;"><strong>Queen & Slim (2019) (Queen ve Slim)</strong> Filmi Imdb'den 15,000 kişi tarafından oylandı ve 7,0 puan aldı. Bu film için editör puanı 6,8 olarak belirlendi. İyi Seyirler!</p>
Teknik Detaylar

Kod :
General
Unique ID                                : 325707693584477321941507170883953382449 (0xF509051FF9D9CB17F76C157948AA5431)
Complete name                            : /root/Desktop/8/Queen.&.Slim.2019.FHD.BluRay.x264.TR.ENG.Filmbol.mkv
Format                                  : Matroska
Format version                          : Version 4 / Version 2
File size                                : 9.09 GiB
Duration                                : 2h 12mn
Overall bit rate                        : 9 834 Kbps
Movie name                              : Quenn & Slim - 2019 | Filmbol.org
Encoded date                            : UTC 2020-05-29 18:04:55
Writing application                      : mkvmerge v8.8.0 ('Wind at my back') 64bit
Writing library                          : libebml v1.3.3 + libmatroska v1.4.4

Video
ID                                      : 1
Format                                  : AVC
Format/Info                              : Advanced Video Codec
Format profile                          : High@L4.1
Format settings, CABAC                  : Yes
Format settings, ReFrames                : 5 frames
Codec ID                                : V_MPEG4/ISO/AVC
Duration                                : 2h 12mn
Bit rate                                : 8 809 Kbps
Width                                    : 1 920 pixels
Height                                  : 808 pixels
Display aspect ratio                    : 2.40:1
Frame rate mode                          : Constant
Frame rate                              : 23.976 (24000/1001) fps
Color space                              : YUV
Chroma subsampling                      : 4:2:0
Bit depth                                : 8 bits
Scan type                                : Progressive
Bits/(Pixel*Frame)                      : 0.237
Stream size                              : 8.14 GiB (90%)
Title                                    : Filmbol.org
Writing library                          : x264 core 159 r2991 1771b55
Encoding settings                        : cabac=1 / ref=5 / deblock=1:-3:-3 / analyse=0x3:0x133 / me=umh / subme=7 / psy=1 / psy_rd=1.00:0.00 / mixed_ref=1 / me_range=16 / chroma_me=1 / trellis=2 / 8x8dct=1 / cqm=0 / deadzone=21,11 / fast_pskip=1 / chroma_qp_offset=-2 / threads=16 / lookahead_threads=2 / sliced_threads=0 / nr=0 / decimate=1 / interlaced=0 / bluray_compat=0 / constrained_intra=0 / bframes=3 / b_pyramid=2 / b_adapt=2 / b_bias=0 / direct=3 / weightb=1 / open_gop=0 / weightp=2 / keyint=250 / keyint_min=23 / scenecut=40 / intra_refresh=0 / rc_lookahead=50 / rc=2pass / mbtree=1 / bitrate=8809 / ratetol=1.0 / qcomp=0.60 / qpmin=0 / qpmax=69 / qpstep=4 / cplxblur=20.0 / qblur=0.5 / ip_ratio=1.40 / aq=1:1.00
Language                                : English
Default                                  : Yes
Forced                                  : No
Color range                              : Limited
Matrix coefficients                      : BT.709

Audio #1
ID                                      : 2
Format                                  : AC-3
Format/Info                              : Audio Coding 3
Mode extension                          : CM (complete main)
Format settings, Endianness              : Big
Codec ID                                : A_AC3
Duration                                : 2h 12mn
Bit rate mode                            : Constant
Bit rate                                : 384 Kbps
Channel(s)                              : 6 channels
Channel positions                        : Front: L C R, Side: L R, LFE
Sampling rate                            : 48.0 KHz
Frame rate                              : 31.250 fps (1536 spf)
Compression mode                        : Lossy
Stream size                              : 364 MiB (4%)
Title                                    : Filmbol.org
Language                                : Turkish
Default                                  : Yes
Forced                                  : No

Audio #2
ID                                      : 3
Format                                  : AC-3
Format/Info                              : Audio Coding 3
Mode extension                          : CM (complete main)
Format settings, Endianness              : Big
Codec ID                                : A_AC3
Duration                                : 2h 12mn
Bit rate mode                            : Constant
Bit rate                                : 640 Kbps
Channel(s)                              : 6 channels
Channel positions                        : Front: L C R, Side: L R, LFE
Sampling rate                            : 48.0 KHz
Frame rate                              : 31.250 fps (1536 spf)
Compression mode                        : Lossy
Stream size                              : 606 MiB (7%)
Title                                    : Filmbol.org
Language                                : English
Default                                  : No
Forced                                  : No

Text #1
ID                                      : 4
Format                                  : UTF-8
Codec ID                                : S_TEXT/UTF8
Codec ID/Info                            : UTF-8 Plain Text
Duration                                : 2h 6mn
Bit rate                                : 0 bps
Count of elements                        : 12
Stream size                              : 289 Bytes (0%)
Title                                    : Filmbol.org
Language                                : Turkish
Default                                  : Yes
Forced                                  : Yes

Text #2
ID                                      : 5
Format                                  : UTF-8
Codec ID                                : S_TEXT/UTF8
Codec ID/Info                            : UTF-8 Plain Text
Duration                                : 2h 11mn
Bit rate                                : 40 bps
Count of elements                        : 1397
Stream size                              : 38.8 KiB (0%)
Title                                    : Filmbol.org
Language                                : Turkish
Default                                  : No
Forced                                  : No

Film Detayları


<p><img style="height: 100%; max-height: 400px; weight: auto; display: block; margin-left: auto; margin-right: auto;" src="//www.filmbol.org/wp-content/uploads/2020/06/quenn-and-slim-01.webp" alt=" Queen & Slim " width="750" height="400" /></p><p><img style="height: 100%; max-height: 400px; weight: auto; display: block; margin-left: auto; margin-right: auto;" src="//www.filmbol.org/wp-content/uploads/2020/06/quenn-and-slim-02.webp" alt=" Queen & Slim " width="750" height="400" /></p><p><img style="height: 100%; max-height: 400px; weight: auto; display: block; margin-left: auto; margin-right: auto;" src="//www.filmbol.org/wp-content/uploads/2020/06/quenn-and-slim-03.webp" alt=" Queen & Slim " width="750" height="400" /></p>

Film Fragmanı


Film Detayları

Uptobox ile indir

1Fichier ile indir

1Fichier'den İndiremiyor musun? Tıklayın!


Mega ile indir

Bunun için üzgünüz ancak, bu linke sadece premium üyeler erişebilir.

Filmbol Cloud

, Saat: 22:54
Yorumlar : 0 • Okunma : 22

Vizyon Tarihi


27 Kasım 2019

imdb puanı


7,0 / 15,000

süre


132 dakika

Editör Puanı


6,8 / 10

Video Format: Mkv


Matroska (.MKV)

Ses Kodek: AC3


Audio Coding 3 (AC3)

sürüm


x264 | 1080P | BluRay

Boyutlar


2,61 GB


<br /><center><p><img style="height: 100%; max-height: 400px; weight: auto; display: block; margin-left: auto; margin-right: auto;" src="//www.filmbol.org/wp-content/uploads/2020/06/quenn-and-slim-04.webp" alt=" Queen & Slim " width="273" height="400" /></p></center>

Siyahi bir adam ile kadın yolları kesişmeleri sonucu tanışırlar. Beraber takılmaya başladıktan bir süre sonra yanlarına bir polis yaklaşır ve trafik ihlali gerekçesiyle ceza kesmeye çalışır. Bu sırada bir tartışma alevlenir ve bu tartışma kavgaya dönüşür. Siyahi adam son çare olarak istemeden polisi öldürür ve bir anda yeni tanışan çift, iki yeni suçlu haline dönüşür...
<p style="text-align: center;"><strong>Queen & Slim (2019) (Queen ve Slim)</strong> Filmi Imdb'den 15,000 kişi tarafından oylandı ve 7,0 puan aldı. Bu film için editör puanı 6,8 olarak belirlendi. İyi Seyirler!</p>
Teknik Detaylar

Kod :
General
Unique ID                                : 170993750987912702759672704319462147327 (0x80A432D3103982B688016052FCA584FF)
Complete name                            : /root/Desktop/8/Queen.&.Slim.2019.1080p.BluRay.x264.TR.ENG.Filmbol.mkv
Format                                  : Matroska
Format version                          : Version 4 / Version 2
File size                                : 2.61 GiB
Duration                                : 2h 12mn
Overall bit rate                        : 2 828 Kbps
Movie name                              : Quenn & Slim - 2019 | Filmbol.org
Encoded date                            : UTC 2020-05-29 18:04:04
Writing application                      : mkvmerge v8.8.0 ('Wind at my back') 64bit
Writing library                          : libebml v1.3.3 + libmatroska v1.4.4

Video
ID                                      : 1
Format                                  : AVC
Format/Info                              : Advanced Video Codec
Format profile                          : High@L4.1
Format settings, CABAC                  : Yes
Format settings, ReFrames                : 4 frames
Codec ID                                : V_MPEG4/ISO/AVC
Duration                                : 2h 12mn
Bit rate                                : 2 250 Kbps
Width                                    : 1 920 pixels
Height                                  : 800 pixels
Display aspect ratio                    : 2.40:1
Frame rate mode                          : Constant
Frame rate                              : 23.976 (24000/1001) fps
Color space                              : YUV
Chroma subsampling                      : 4:2:0
Bit depth                                : 8 bits
Scan type                                : Progressive
Bits/(Pixel*Frame)                      : 0.061
Stream size                              : 2.08 GiB (80%)
Title                                    : Filmbol.org
Writing library                          : x264 core 159
Encoding settings                        : cabac=1 / ref=4 / deblock=1:-1:-1 / analyse=0x3:0x133 / me=umh / subme=9 / psy=1 / psy_rd=1.00:0.15 / mixed_ref=1 / me_range=24 / chroma_me=1 / trellis=2 / 8x8dct=1 / cqm=0 / deadzone=21,11 / fast_pskip=0 / chroma_qp_offset=-3 / threads=12 / lookahead_threads=1 / sliced_threads=0 / nr=0 / decimate=1 / interlaced=0 / bluray_compat=0 / constrained_intra=0 / bframes=3 / b_pyramid=2 / b_adapt=2 / b_bias=0 / direct=3 / weightb=1 / open_gop=0 / weightp=2 / keyint=250 / keyint_min=23 / scenecut=40 / intra_refresh=0 / rc_lookahead=60 / rc=2pass / mbtree=1 / bitrate=2250 / ratetol=1.0 / qcomp=0.60 / qpmin=0 / qpmax=69 / qpstep=4 / cplxblur=20.0 / qblur=0.5 / vbv_maxrate=31250 / vbv_bufsize=31250 / nal_hrd=none / filler=0 / ip_ratio=1.40 / aq=1:1.00
Default                                  : Yes
Forced                                  : No

Audio #1
ID                                      : 2
Format                                  : AC-3
Format/Info                              : Audio Coding 3
Mode extension                          : CM (complete main)
Format settings, Endianness              : Big
Codec ID                                : A_AC3
Duration                                : 2h 12mn
Bit rate mode                            : Constant
Bit rate                                : 384 Kbps
Channel(s)                              : 6 channels
Channel positions                        : Front: L C R, Side: L R, LFE
Sampling rate                            : 48.0 KHz
Frame rate                              : 31.250 fps (1536 spf)
Compression mode                        : Lossy
Stream size                              : 364 MiB (14%)
Title                                    : Filmbol.org
Language                                : Turkish
Default                                  : Yes
Forced                                  : No

Audio #2
ID                                      : 3
Format                                  : AC-3
Format/Info                              : Audio Coding 3
Mode extension                          : CM (complete main)
Format settings, Endianness              : Big
Codec ID                                : A_AC3
Duration                                : 2h 12mn
Bit rate mode                            : Constant
Bit rate                                : 192 Kbps
Channel(s)                              : 2 channels
Channel positions                        : Front: L R
Sampling rate                            : 48.0 KHz
Frame rate                              : 31.250 fps (1536 spf)
Compression mode                        : Lossy
Stream size                              : 182 MiB (7%)
Title                                    : Filmbol.org
Language                                : English
Default                                  : No
Forced                                  : No

Text #1
ID                                      : 4
Format                                  : UTF-8
Codec ID                                : S_TEXT/UTF8
Codec ID/Info                            : UTF-8 Plain Text
Duration                                : 2h 6mn
Bit rate                                : 0 bps
Count of elements                        : 12
Stream size                              : 289 Bytes (0%)
Title                                    : Filmbol.org
Language                                : Turkish
Default                                  : Yes
Forced                                  : Yes

Text #2
ID                                      : 5
Format                                  : UTF-8
Codec ID                                : S_TEXT/UTF8
Codec ID/Info                            : UTF-8 Plain Text
Duration                                : 2h 11mn
Bit rate                                : 40 bps
Count of elements                        : 1397
Stream size                              : 38.8 KiB (0%)
Title                                    : Filmbol.org
Language                                : Turkish
Default                                  : No
Forced                                  : No

Film Detayları


<p><img style="height: 100%; max-height: 400px; weight: auto; display: block; margin-left: auto; margin-right: auto;" src="//www.filmbol.org/wp-content/uploads/2020/06/quenn-and-slim-01.webp" alt=" Queen & Slim " width="750" height="400" /></p><p><img style="height: 100%; max-height: 400px; weight: auto; display: block; margin-left: auto; margin-right: auto;" src="//www.filmbol.org/wp-content/uploads/2020/06/quenn-and-slim-02.webp" alt=" Queen & Slim " width="750" height="400" /></p><p><img style="height: 100%; max-height: 400px; weight: auto; display: block; margin-left: auto; margin-right: auto;" src="//www.filmbol.org/wp-content/uploads/2020/06/quenn-and-slim-03.webp" alt=" Queen & Slim " width="750" height="400" /></p>

Film Fragmanı


Film Detayları

Uptobox ile indir

1Fichier ile indir

1Fichier'den İndiremiyor musun? Tıklayın!


Mega ile indir

Bunun için üzgünüz ancak, bu linke sadece premium üyeler erişebilir.

Filmbol Cloud

, Saat: 22:54
Yorumlar : 0 • Okunma : 25

Vizyon Tarihi


27 Kasım 2019

imdb puanı


7,0 / 15,000

süre


132 dakika

Editör Puanı


6,8 / 10

Video Format: Mkv


Matroska (.MKV)

Ses Kodek: AC3


Audio Coding 3 (AC3)

sürüm


x264 | 720P | BluRay

Boyutlar


1,60 GB


<br /><center><p><img style="height: 100%; max-height: 400px; weight: auto; display: block; margin-left: auto; margin-right: auto;" src="//www.filmbol.org/wp-content/uploads/2020/06/quenn-and-slim-04.webp" alt=" Queen & Slim " width="273" height="400" /></p></center>

Siyahi bir adam ile kadın yolları kesişmeleri sonucu tanışırlar. Beraber takılmaya başladıktan bir süre sonra yanlarına bir polis yaklaşır ve trafik ihlali gerekçesiyle ceza kesmeye çalışır. Bu sırada bir tartışma alevlenir ve bu tartışma kavgaya dönüşür. Siyahi adam son çare olarak istemeden polisi öldürür ve bir anda yeni tanışan çift, iki yeni suçlu haline dönüşür...
<p style="text-align: center;"><strong>Queen & Slim (2019) (Queen ve Slim)</strong> Filmi Imdb'den 15,000 kişi tarafından oylandı ve 7,0 puan aldı. Bu film için editör puanı 6,8 olarak belirlendi. İyi Seyirler!</p>
Teknik Detaylar

Kod :
General
Unique ID                                : 116235791539881422122730464818454546538 (0x577232FBBB51258D8B69A9E9E34F486A)
Complete name                            : /root/Desktop/8/Queen.&.Slim.2019.720p.BluRay.x264.TR.ENG.Filmbol.mkv
Format                                  : Matroska
Format version                          : Version 4 / Version 2
File size                                : 1.60 GiB
Duration                                : 2h 12mn
Overall bit rate                        : 1 728 Kbps
Movie name                              : Quenn & Slim - 2019 | Filmbol.org
Encoded date                            : UTC 2020-05-29 18:03:25
Writing application                      : mkvmerge v8.8.0 ('Wind at my back') 64bit
Writing library                          : libebml v1.3.3 + libmatroska v1.4.4

Video
ID                                      : 1
Format                                  : AVC
Format/Info                              : Advanced Video Codec
Format profile                          : High@L4.1
Format settings, CABAC                  : Yes
Format settings, ReFrames                : 4 frames
Codec ID                                : V_MPEG4/ISO/AVC
Duration                                : 2h 12mn
Bit rate                                : 1 150 Kbps
Width                                    : 1 280 pixels
Height                                  : 534 pixels
Display aspect ratio                    : 2.40:1
Original display aspect ratio            : 2.40:1
Frame rate mode                          : Constant
Frame rate                              : 23.976 (24000/1001) fps
Color space                              : YUV
Chroma subsampling                      : 4:2:0
Bit depth                                : 8 bits
Scan type                                : Progressive
Bits/(Pixel*Frame)                      : 0.070
Stream size                              : 1.06 GiB (67%)
Title                                    : Filmbol.org
Writing library                          : x264 core 159
Encoding settings                        : cabac=1 / ref=4 / deblock=1:-1:-1 / analyse=0x3:0x133 / me=umh / subme=9 / psy=1 / psy_rd=1.00:0.15 / mixed_ref=1 / me_range=24 / chroma_me=1 / trellis=2 / 8x8dct=1 / cqm=0 / deadzone=21,11 / fast_pskip=0 / chroma_qp_offset=-3 / threads=12 / lookahead_threads=1 / sliced_threads=0 / nr=0 / decimate=1 / interlaced=0 / bluray_compat=0 / constrained_intra=0 / bframes=3 / b_pyramid=2 / b_adapt=2 / b_bias=0 / direct=3 / weightb=1 / open_gop=0 / weightp=2 / keyint=250 / keyint_min=23 / scenecut=40 / intra_refresh=0 / rc_lookahead=60 / rc=2pass / mbtree=1 / bitrate=1150 / ratetol=1.0 / qcomp=0.60 / qpmin=0 / qpmax=69 / qpstep=4 / cplxblur=20.0 / qblur=0.5 / vbv_maxrate=31250 / vbv_bufsize=31250 / nal_hrd=none / filler=0 / ip_ratio=1.40 / aq=1:1.00
Default                                  : Yes
Forced                                  : No

Audio #1
ID                                      : 2
Format                                  : AC-3
Format/Info                              : Audio Coding 3
Mode extension                          : CM (complete main)
Format settings, Endianness              : Big
Codec ID                                : A_AC3
Duration                                : 2h 12mn
Bit rate mode                            : Constant
Bit rate                                : 384 Kbps
Channel(s)                              : 6 channels
Channel positions                        : Front: L C R, Side: L R, LFE
Sampling rate                            : 48.0 KHz
Frame rate                              : 31.250 fps (1536 spf)
Compression mode                        : Lossy
Stream size                              : 364 MiB (22%)
Title                                    : Filmbol.org
Language                                : Turkish
Default                                  : Yes
Forced                                  : No

Audio #2
ID                                      : 3
Format                                  : AC-3
Format/Info                              : Audio Coding 3
Mode extension                          : CM (complete main)
Format settings, Endianness              : Big
Codec ID                                : A_AC3
Duration                                : 2h 12mn
Bit rate mode                            : Constant
Bit rate                                : 192 Kbps
Channel(s)                              : 2 channels
Channel positions                        : Front: L R
Sampling rate                            : 48.0 KHz
Frame rate                              : 31.250 fps (1536 spf)
Compression mode                        : Lossy
Stream size                              : 182 MiB (11%)
Title                                    : Filmbol.org
Language                                : English
Default                                  : No
Forced                                  : No

Text #1
ID                                      : 4
Format                                  : UTF-8
Codec ID                                : S_TEXT/UTF8
Codec ID/Info                            : UTF-8 Plain Text
Duration                                : 2h 6mn
Bit rate                                : 0 bps
Count of elements                        : 12
Stream size                              : 289 Bytes (0%)
Title                                    : Filmbol.org
Language                                : Turkish
Default                                  : Yes
Forced                                  : Yes

Text #2
ID                                      : 5
Format                                  : UTF-8
Codec ID                                : S_TEXT/UTF8
Codec ID/Info                            : UTF-8 Plain Text
Duration                                : 2h 11mn
Bit rate                                : 40 bps
Count of elements                        : 1397
Stream size                              : 38.8 KiB (0%)
Title                                    : Filmbol.org
Language                                : Turkish
Default                                  : No
Forced                                  : No

Film Detayları


<p><img style="height: 100%; max-height: 400px; weight: auto; display: block; margin-left: auto; margin-right: auto;" src="//www.filmbol.org/wp-content/uploads/2020/06/quenn-and-slim-01.webp" alt=" Queen & Slim " width="750" height="400" /></p><p><img style="height: 100%; max-height: 400px; weight: auto; display: block; margin-left: auto; margin-right: auto;" src="//www.filmbol.org/wp-content/uploads/2020/06/quenn-and-slim-02.webp" alt=" Queen & Slim " width="750" height="400" /></p><p><img style="height: 100%; max-height: 400px; weight: auto; display: block; margin-left: auto; margin-right: auto;" src="//www.filmbol.org/wp-content/uploads/2020/06/quenn-and-slim-03.webp" alt=" Queen & Slim " width="750" height="400" /></p>

Film Fragmanı


Film Detayları

Uptobox ile indir

1Fichier ile indir

1Fichier'den İndiremiyor musun? Tıklayın!


Mega ile indir

Bunun için üzgünüz ancak, bu linke sadece premium üyeler erişebilir.

Filmbol Cloud