Hoşgeldin, Ziyaretçi: Giriş Yap Üye Ol


Hoşgeldin, Ziyaretçi
Sitemizden yararlanabilmek için Kayıt olmalısınız.

Kullanıcı Adı/E-Posta:
  

Şifreniz:
  





Forumda Ara

(Gelişmiş Arama)

Forum İstatistikleri
» Toplam Üyeler: 528
» Son Üye: kevser27
» Toplam Konular: 818
» Toplam Yorumlar: 875

Detaylı İstatistikler

Kimler Çevrimiçi
Toplam: 25 kullanıcı aktif
» 0 Kayıtlı
» 25 Ziyaretçi

Son Aktiviteler
Deadpool 2 Türkçe Dublaj ...
yazar kevser27
Dün, Saat: 13:36
Belalı Tanık (2017) Türkç...
yazar kangtigin
18-10-2018, Saat: 00:45
Deadpool 2 Türkçe Dublaj ...
yazar bilalklc
16-10-2018, Saat: 17:23
Uzman Üyelik Hakkında
yazar BroserBros
04-10-2018, Saat: 21:32
Genel Yardım
yazar BroserBros
04-10-2018, Saat: 20:28
Belalı Tanık (2017) Türkç...
yazar metaldeniz
01-10-2018, Saat: 01:47
Asla Pes Etme 3 (Never Ba...
yazar metaldeniz
01-10-2018, Saat: 01:46
Kurtarıcı (Extraction) Tü...
yazar metaldeniz
01-10-2018, Saat: 01:45
Kan Bağı (Blood Father) T...
yazar metaldeniz
01-10-2018, Saat: 01:44
U.S.S Indianapolis: Cesur...
yazar metaldeniz
01-10-2018, Saat: 01:43

 
  Genel Yardım
Yazar: BroserBros - 04-10-2018, Saat: 20:28 - Forum: Destek - Yorum Yok

FİLMBOL HAKKINDA HERHANGİ BİR SORUNUNUZ VAR İSE VE KONU AÇMAK İSTEMİYORSANIZ BU KONU ALTINDA YORUM OLARAK PAYLAŞABİLİRSİNİZ.

Bu konuyu yazdır

Filmin Yayınlanma Tarihi: 2011 Karayip Korsanları :4 (Pirates Of Caribbean :4) Türkçe Dublaj Brrip-Xvid İndir
Yazar: BroserBros - 13-09-2018, Saat: 17:27 - Forum: Brrip-Xvid - Yorum Yok

indirme türü


Bulut + Premium

vizyon tarihi


19 Mayıs 2011

Boyutlar


1,37

diller


[TR]

altyazilar


Yok [Eklenebilir]

Video Format: Avi


Audio Video Interleave (.AVI)

Video Detay


MPEG-4, 885 Kbps, 0,81 GB

imdb puanı


6,6 / 10,0 / 450,000

süre


136 dakika

Ses Kodek: AC3


Audio Coding 3 (AC3)

Ses Detay


640 Kbps, 6 Kanal, 585 Mb

rarsifresi


filmbol.org

Editör Puanı


7,5

Genislik Yukseklik


1280x528

sürüm


x264 | Brrip-Xvid




Film Detayları



Teknik Detaylar


Kod:
General
Complete name                            : Pirates.of.the.Caribbean.On.Stranger.Tides.2011.BRRip-XviD.TR.Filmbol.avi
Format                                   : AVI
Format/Info                              : Audio Video Interleave
File size                                : 1.37 GiB
Duration                                 : 2 h 7 min
Overall bit rate                         : 1 536 kb/s

Video
ID                                       : 0
Format                                   : AVC
Format/Info                              : Advanced Video Codec
Format profile                           : High@L4
Format settings                          : CABAC / 7 Ref Frames
Format settings, CABAC                   : Yes
Format settings, ReFrames                : 7 frames
Codec ID                                 : AVC1
Duration                                 : 2 h 7 min
Bit rate                                 : 885 kb/s
Width                                    : 1 280 pixels
Height                                   : 528 pixels
Display aspect ratio                     : 2.40:1
Frame rate                               : 23.976 (24000/1001) FPS
Color space                              : YUV
Chroma subsampling                       : 4:2:0
Bit depth                                : 8 bits
Scan type                                : Progressive
Bits/(Pixel*Frame)                       : 0.055
Stream size                              : 810 MiB (58%)
Writing library                          : x264 core 129 r2245 bc13772


Audio
ID                                       : 1
Format                                   : AC-3
Format/Info                              : Audio Coding 3
Codec ID                                 : 2000
Duration                                 : 2 h 7 min
Bit rate mode                            : Constant
Bit rate                                 : 640 kb/s
Channel(s)                               : 6 channels
Channel positions                        : Front: L C R, Side: L R, LFE
Sampling rate                            : 48.0 kHz
Frame rate                               : 31.250 FPS (1536 SPF)
Bit depth                                : 16 bits
Compression mode                         : Lossy
Stream size                              : 585 MiB (42%)
Alignment                                : Aligned on interleaves
Interleave, duration                     : 32  ms (0.77 video frame)
Service kind                             : Complete Main



Film Detayları



Karayip Korsanları 4

Karayip Korsanları 4

Karayip Korsanları 4

Karayip Korsanları 4

Karayip Korsanları 4


Film Fragmanı


Film Detayları

Brrip İndir


Turbobit İle İndir

Mega ile indir

Uptobox ile indir

Cloud Ru ile indir

Bu konuyu yazdır

Filmin Yayınlanma Tarihi: 2011 Karayip Korsanları :4 (Pirates Of Caribbean :4) Türkçe Dublaj m720P İndir
Yazar: BroserBros - 13-09-2018, Saat: 17:27 - Forum: m720P - Yorum Yok

indirme türü


Bulut + Premium

vizyon tarihi


19 Mayıs 2011

Boyutlar


1,40

diller


[TR]

altyazilar


Yok [Eklenebilir]

Video Format: Mkv


Matroska (.MKV)

Video Detay


MPEG-4, 885 Kbps, 0,81 GB

imdb puanı


6,6 / 10,0 / 450,000

süre


136 dakika

Ses Kodek: AC3


Audio Coding 3 (AC3)

Ses Detay


640 Kbps, 6 Kanal, 585 Mb

rarsifresi


filmbol.org

Editör Puanı


7,5

Genislik Yukseklik


1280x528

sürüm


x264 | m720P




Film Detayları



Teknik Detaylar


Kod:
General
Complete name                            : Pirates.of.the.Caribbean.On.Stranger.Tides.2011.m720P.BLURAY.x264.TR.Filmbol.mkv
Format                                   : Matroska
Format version                           : Version 4 / Version 2
File size                                : 1.40 GiB
Duration                                 : 2 h 16 min
Overall bit rate                         : 1 472 kb/s
Movie name                               : Pirates of the Caribbean 4 (2011) / m720P / Filmbol.org
Encoded date                             : UTC 2018-08-31 16:11:58
Writing application                      : mkvmerge v15.0.0 ('Duel with the Devil') 64-bit
Writing library                          : libebml v1.3.5 + libmatroska v1.4.7

Video
ID                                       : 1
Format                                   : AVC
Format/Info                              : Advanced Video Codec
Format profile                           : High@L4
Format settings                          : CABAC / 7 Ref Frames
Format settings, CABAC                   : Yes
Format settings, ReFrames                : 7 frames
Codec ID                                 : V_MPEG4/ISO/AVC
Duration                                 : 2 h 7 min
Bit rate                                 : 885 kb/s
Width                                    : 1 280 pixels
Height                                   : 528 pixels
Display aspect ratio                     : 2.40:1
Frame rate mode                          : Constant
Frame rate                               : 23.976 (24000/1001) FPS
Color space                              : YUV
Chroma subsampling                       : 4:2:0
Bit depth                                : 8 bits
Scan type                                : Progressive
Bits/(Pixel*Frame)                       : 0.055
Stream size                              : 810 MiB (56%)
Title                                    : m720P - Filmbol.org
Writing library                          : x264 core 129 r2245 bc13772
Default                                  : Yes
Forced                                   : No

Audio
ID                                       : 2
Format                                   : AC-3
Format/Info                              : Audio Coding 3
Codec ID                                 : A_AC3
Duration                                 : 2 h 16 min
Bit rate mode                            : Constant
Bit rate                                 : 640 kb/s
Channel(s)                               : 6 channels
Channel positions                        : Front: L C R, Side: L R, LFE
Sampling rate                            : 48.0 kHz
Frame rate                               : 31.250 FPS (1536 SPF)
Bit depth                                : 16 bits
Compression mode                         : Lossy
Stream size                              : 624 MiB (43%)
Title                                    : Türkçe - Filmbol.org
Language                                 : Turkish
Service kind                             : Complete Main
Default                                  : Yes
Forced                                   : No



Film Detayları



Karayip Korsanları 4

Karayip Korsanları 4

Karayip Korsanları 4

Karayip Korsanları 4

Karayip Korsanları 4



Film Fragmanı


Film Detayları

Mini 720P İndir


Turbobit İle İndir

Mega ile indir

Uptobox ile indir

Cloud Ru ile indir

Bu konuyu yazdır

Filmin Yayınlanma Tarihi: 2011 Karayip Korsanları :4 (Pirates Of Caribbean :4) Türkçe Dublaj m1080P İndir
Yazar: BroserBros - 13-09-2018, Saat: 17:25 - Forum: m1080P - Yorum Yok

indirme türü


Bulut + Premium

vizyon tarihi


19 Mayıs 2011

Boyutlar


2,52

diller


[TR]

altyazilar


Yok [Eklenebilir]

Video Format: Mkv


Matroska (.MKV)

Video Detay


MPEG-4, 2135 Kbps, 1,91 GB

imdb puanı


6,6 / 10,0 / 450,000

süre


136 dakika

Ses Kodek: AC3


Audio Coding 3 (AC3)

Ses Detay


640 Kbps, 6 Kanal, 585 Mb

rarsifresi


filmbol.org

Editör Puanı


7,5

Genislik Yukseklik


1920x800

sürüm


x264 | m1080P




Film Detayları



Teknik Detaylar


Kod:
General
Complete name                            : Pirates.of.the.Caribbean.On.Stranger.Tides.2011.m1080P.BLURAY.x264.TR.Filmbol.mkv
Format                                   : Matroska
Format version                           : Version 4 / Version 2
File size                                : 2.52 GiB
Duration                                 : 2 h 16 min
Overall bit rate                         : 2 644 kb/s
Movie name                               : Pirates of the Caribbean 4 (2011) / m1080P / Filmbol.org
Encoded date                             : UTC 2018-08-31 16:08:38
Writing application                      : mkvmerge v15.0.0 ('Duel with the Devil') 64-bit
Writing library                          : libebml v1.3.5 + libmatroska v1.4.7

Video
ID                                       : 1
Format                                   : AVC
Format/Info                              : Advanced Video Codec
Format profile                           : High@L4
Format settings                          : CABAC / 5 Ref Frames
Format settings, CABAC                   : Yes
Format settings, ReFrames                : 5 frames
Codec ID                                 : V_MPEG4/ISO/AVC
Duration                                 : 2 h 7 min
Bit rate                                 : 2 135 kb/s
Width                                    : 1 920 pixels
Height                                   : 800 pixels
Display aspect ratio                     : 2.40:1
Frame rate mode                          : Constant
Frame rate                               : 23.976 (24000/1001) FPS
Color space                              : YUV
Chroma subsampling                       : 4:2:0
Bit depth                                : 8 bits
Scan type                                : Progressive
Bits/(Pixel*Frame)                       : 0.058
Stream size                              : 1.91 GiB (76%)
Title                                    : m1080P - Filmbol.org
Writing library                          : x264 core 129 r2245 bc13772
Default                                  : Yes
Forced                                   : No

Audio
ID                                       : 2
Format                                   : AC-3
Format/Info                              : Audio Coding 3
Codec ID                                 : A_AC3
Duration                                 : 2 h 16 min
Bit rate mode                            : Constant
Bit rate                                 : 640 kb/s
Channel(s)                               : 6 channels
Channel positions                        : Front: L C R, Side: L R, LFE
Sampling rate                            : 48.0 kHz
Frame rate                               : 31.250 FPS (1536 SPF)
Bit depth                                : 16 bits
Compression mode                         : Lossy
Stream size                              : 624 MiB (24%)
Title                                    : Türkçe - Filmbol.org
Language                                 : Turkish
Service kind                             : Complete Main
Default                                  : Yes
Forced                                   : No



Film Detayları


Karayip Korsanları 4


Karayip Korsanları 4


Karayip Korsanları 4


Karayip Korsanları 4


Karayip Korsanları 4


Film Fragmanı


Film Detayları

Mini 1080P İndir


Turbobit İle İndir

Mega ile indir

Uptobox ile indir

Mypcloud ile indir

MediaFire ile indir

Dosya Upload ile indir

Bu konuyu yazdır

Filmin Yayınlanma Tarihi: 2007 Karayip Korsanları :3 (Pirates of Caribbean :3) Türkçe Dublaj Brrip-Xvid İndir
Yazar: BroserBros - 11-09-2018, Saat: 16:33 - Forum: Brrip-Xvid - Yorum Yok

indirme türü


Bulut + Premium

vizyon tarihi


25 Mayıs 2007

Boyutlar


1,60

diller


[TR]

altyazilar


Yok [Eklenebilir]

Video Format: Avi


Audio Video Interleave (.AVI)

Video Detay


MPEG-4, 797 Kbps, 0,90 GB

imdb puanı


7,1 / 10,0 / 550,000

süre


169 dakika

Ses Kodek: AC3


Audio Coding 3 (AC3)

Ses Detay


640 Kbps, 6 Kanal, 728 Mb

rarsifresi


filmbol.org

Editör Puanı


7,8

Genislik Yukseklik


1280x528

sürüm


x264 | Brrip-Xvid




Film Detayları

Jack Sparrow, ölüm mekanından dostlarının yardımı ile kurtulmuştur ancak, bu sefer karşılarına Davy Jones ve Lord Cutler Beckett çıkmıştır. Beckett, gizli bir anlaşma yapmıştır. Bu anlaşmaya göre Karayip Korsanlarının sonu yaklaşmaktadır. Jack, tüm dostlarını toplayacaktır ancak onları da ihanet ve tehlike beklemektedir.

Karayip Korsanları 3: Dünyanın Sonu (2007) (Pirates of the Caribbean 3: At World's End) Filmi İmdb'den 550.000 kişi tarafından oylandı ve 7,1 puan aldı. Bu film için editör puanı 7,8 olarak belirlendi. İyi Seyirler!


Teknik Detaylar

Kod:
General
Complete name                            : 2007 pirates/Pirates.of.the.Caribbean.At.Worlds.End.2007.BRRip-XviD.TR.Filmbol.avi
Format                                   : AVI
Format/Info                              : Audio Video Interleave
File size                                : 1.61 GiB
Duration                                 : 2 h 39 min
Overall bit rate                         : 1 448 kb/s

Video
ID                                       : 0
Format                                   : AVC
Format/Info                              : Advanced Video Codec
Format profile                           : High@L4
Format settings                          : CABAC / 7 Ref Frames
Format settings, CABAC                   : Yes
Format settings, ReFrames                : 7 frames
Codec ID                                 : AVC1
Duration                                 : 2 h 39 min
Bit rate                                 : 797 kb/s
Width                                    : 1 280 pixels
Height                                   : 528 pixels
Display aspect ratio                     : 2.40:1
Frame rate                               : 23.976 (24000/1001) FPS
Color space                              : YUV
Chroma subsampling                       : 4:2:0
Bit depth                                : 8 bits
Scan type                                : Progressive
Bits/(Pixel*Frame)                       : 0.049
Stream size                              : 907 MiB (55%)
Writing library                          : x264 core 129 r2245 bc13772


Audio
ID                                       : 1
Format                                   : AC-3
Format/Info                              : Audio Coding 3
Codec ID                                 : 2000
Duration                                 : 2 h 39 min
Bit rate mode                            : Constant
Bit rate                                 : 640 kb/s
Channel(s)                               : 6 channels
Channel positions                        : Front: L C R, Side: L R, LFE
Sampling rate                            : 48.0 kHz
Frame rate                               : 31.250 FPS (1536 SPF)
Bit depth                                : 16 bits
Compression mode                         : Lossy
Stream size                              : 728 MiB (44%)
Alignment                                : Aligned on interleaves
Interleave, duration                     : 32  ms (0.77 video frame)
Service kind                             : Complete Main




Film Detayları


Karayip Korsanlari 3

Karayip Korsanlari 3

Karayip Korsanlari 3

Karayip Korsanlari 3

Karayip Korsanlari 3


Film Fragmanı


Film Detayları

Brrip İndir


Turbobit İle İndir

Mega ile indir

Uptobox ile indir

Cloud Ru ile indir

Bu konuyu yazdır

Filmin Yayınlanma Tarihi: 2007 Karayip Korsanları :3 (Pirates of Caribbean :3) Türkçe Dublaj m720P İndir
Yazar: BroserBros - 11-09-2018, Saat: 16:33 - Forum: m720P - Yorum Yok

indirme türü


Bulut + Premium

vizyon tarihi


25 Mayıs 2007

Boyutlar


1,64

diller


[TR]

altyazilar


Yok [Eklenebilir]

Video Format: Mkv


Matroska (.MKV)

Video Detay


MPEG-4, 797 Kbps, 0,90 GB

imdb puanı


7,1 / 10,0 / 550,000

süre


169 dakika

Ses Kodek: AC3


Audio Coding 3 (AC3)

Ses Detay


640 Kbps, 6 Kanal, 728 Mb

rarsifresi


filmbol.org

Editör Puanı


7,8

Genislik Yukseklik


1280x528

sürüm


x264 | m720P




Film Detayları

Jack Sparrow, ölüm mekanından dostlarının yardımı ile kurtulmuştur ancak, bu sefer karşılarına Davy Jones ve Lord Cutler Beckett çıkmıştır. Beckett, gizli bir anlaşma yapmıştır. Bu anlaşmaya göre Karayip Korsanlarının sonu yaklaşmaktadır. Jack, tüm dostlarını toplayacaktır ancak onları da ihanet ve tehlike beklemektedir.

Karayip Korsanları 3: Dünyanın Sonu (2007) (Pirates of the Caribbean 3: At World's End) Filmi İmdb'den 550.000 kişi tarafından oylandı ve 7,1 puan aldı. Bu film için editör puanı 7,8 olarak belirlendi. İyi Seyirler!


Teknik Detaylar

Kod:
General
Complete name                            : Pirates.of.the.Caribbean.At.Worlds.End.2007.m720P.BLURAY.x264.TR.Filmbol.mkv
Format                                   : Matroska
Format version                           : Version 4 / Version 2
File size                                : 1.64 GiB
Duration                                 : 2 h 48 min
Overall bit rate                         : 1 393 kb/s
Movie name                               : Pirates of the Caribbean 3 (2007) / m720P / Filmbol.org
Encoded date                             : UTC 2018-08-31 15:53:32
Writing application                      : mkvmerge v15.0.0 ('Duel with the Devil') 64-bit
Writing library                          : libebml v1.3.5 + libmatroska v1.4.7

Video
ID                                       : 1
Format                                   : AVC
Format/Info                              : Advanced Video Codec
Format profile                           : High@L4
Format settings                          : CABAC / 7 Ref Frames
Format settings, CABAC                   : Yes
Format settings, ReFrames                : 7 frames
Codec ID                                 : V_MPEG4/ISO/AVC
Duration                                 : 2 h 39 min
Bit rate                                 : 797 kb/s
Width                                    : 1 280 pixels
Height                                   : 528 pixels
Display aspect ratio                     : 2.40:1
Frame rate mode                          : Constant
Frame rate                               : 23.976 (24000/1001) FPS
Color space                              : YUV
Chroma subsampling                       : 4:2:0
Bit depth                                : 8 bits
Scan type                                : Progressive
Bits/(Pixel*Frame)                       : 0.049
Stream size                              : 907 MiB (54%)
Title                                    : m720P - Filmbol.org
Writing library                          : x264 core 129 r2245 bc13772
EDefault                                  : Yes
Forced                                   : No

Audio
ID                                       : 2
Format                                   : AC-3
Format/Info                              : Audio Coding 3
Codec ID                                 : A_AC3
Duration                                 : 2 h 48 min
Bit rate mode                            : Constant
Bit rate                                 : 640 kb/s
Channel(s)                               : 6 channels
Channel positions                        : Front: L C R, Side: L R, LFE
Sampling rate                            : 48.0 kHz
Frame rate                               : 31.250 FPS (1536 SPF)
Bit depth                                : 16 bits
Compression mode                         : Lossy
Stream size                              : 773 MiB (46%)
Title                                    : Türkçe - Filmbol.org
Language                                 : Turkish
Service kind                             : Complete Main
Default                                  : Yes
Forced                                   : Yes




Film Detayları


Karayip Korsanlari 3

Karayip Korsanlari 3

Karayip Korsanlari 3

Karayip Korsanlari 3

Karayip Korsanlari 3


Film Fragmanı


Film Detayları

Mini 720P İndir


Turbobit İle İndir

Mega ile indir

Uptobox ile indir

Cloud Ru ile indir

Bu konuyu yazdır

Filmin Yayınlanma Tarihi: 2007 Karayip Korsanları :3 (Pirates of Caribbean :3) Türkçe Dublaj m1080P İndir
Yazar: BroserBros - 11-09-2018, Saat: 16:33 - Forum: m1080P - Yorum Yok

indirme türü


Bulut + Premium

vizyon tarihi


25 Mayıs 2007

Boyutlar


3,14

diller


[TR]

altyazilar


Yok [Eklenebilir]

Video Format: Mkv


Matroska (.MKV)

Video Detay


MPEG-4, 2147 Kbps, 2,39 GB

imdb puanı


7,1 / 10,0 / 550,000

süre


169 dakika

Ses Kodek: AC3


Audio Coding 3 (AC3)

Ses Detay


640 Kbps, 6 Kanal, 728 Mb

rarsifresi


filmbol.org

Editör Puanı


7,8

Genislik Yukseklik


1920x800

sürüm


x264 | m1080P




Film Detayları

Jack Sparrow, ölüm mekanından dostlarının yardımı ile kurtulmuştur ancak, bu sefer karşılarına Davy Jones ve Lord Cutler Beckett çıkmıştır. Beckett, gizli bir anlaşma yapmıştır. Bu anlaşmaya göre Karayip Korsanlarının sonu yaklaşmaktadır. Jack, tüm dostlarını toplayacaktır ancak onları da ihanet ve tehlike beklemektedir.

Karayip Korsanları 3: Dünyanın Sonu (2007) (Pirates of the Caribbean 3: At World's End) Filmi İmdb'den 550.000 kişi tarafından oylandı ve 7,1 puan aldı. Bu film için editör puanı 7,8 olarak belirlendi. İyi Seyirler!


Teknik Detaylar

Kod:
General
Complete name                            : Pirates.of.the.Caribbean.At.Worlds.End.2007.m1080P.BLURAY.x264.TR.Filmbol.mkv
Format                                   : Matroska
Format version                           : Version 4 / Version 2
File size                                : 3.14 GiB
Duration                                 : 2 h 48 min
Overall bit rate                         : 2 665 kb/s
Movie name                               : Pirates of the Caribbean 3 (2007) / m1080P / Filmbol.org
Encoded date                             : UTC 2018-08-31 15:49:39
Writing application                      : mkvmerge v15.0.0 ('Duel with the Devil') 64-bit
Writing library                          : libebml v1.3.5 + libmatroska v1.4.7

Video
ID                                       : 1
Format                                   : AVC
Format/Info                              : Advanced Video Codec
Format profile                           : High@L4
Format settings                          : CABAC / 5 Ref Frames
Format settings, CABAC                   : Yes
Format settings, ReFrames                : 5 frames
Codec ID                                 : V_MPEG4/ISO/AVC
Duration                                 : 2 h 39 min
Bit rate                                 : 2 147 kb/s
Width                                    : 1 920 pixels
Height                                   : 800 pixels
Display aspect ratio                     : 2.40:1
Frame rate mode                          : Constant
Frame rate                               : 23.976 (24000/1001) FPS
Color space                              : YUV
Chroma subsampling                       : 4:2:0
Bit depth                                : 8 bits
Scan type                                : Progressive
Bits/(Pixel*Frame)                       : 0.058
Stream size                              : 2.39 GiB (76%)
Title                                    : m1080P - Filmbol.org
Writing library                          : x264 core 129 r2245 bc13772
Default                                  : Yes
Forced                                   : No

Audio
ID                                       : 2
Format                                   : AC-3
Format/Info                              : Audio Coding 3
Codec ID                                 : A_AC3
Duration                                 : 2 h 48 min
Bit rate mode                            : Constant
Bit rate                                 : 640 kb/s
Channel(s)                               : 6 channels
Channel positions                        : Front: L C R, Side: L R, LFE
Sampling rate                            : 48.0 kHz
Frame rate                               : 31.250 FPS (1536 SPF)
Bit depth                                : 16 bits
Compression mode                         : Lossy
Stream size                              : 773 MiB (24%)
Title                                    : Türkçe - Filmbol.org
Language                                 : Turkish
Service kind                             : Complete Main
Default                                  : Yes
Forced                                   : Yes




Film Detayları


Karayip Korsanlari 3

Karayip Korsanlari 3

Karayip Korsanlari 3

Karayip Korsanlari 3

Karayip Korsanlari 3


Film Fragmanı


Film Detayları

Mini 1080P İndir


Turbobit İle İndir

Mega ile indir

Uptobox ile indir

MediaFire ile indir

Mypcloud ile indir

Bu konuyu yazdır

  Uzman Üyelik Hakkında
Yazar: BroserBros - 10-09-2018, Saat: 20:36 - Forum: Destek - Yorumlar (2)

-DUYURU-

Uzman Üyelik Sistemi;


Uzman üye olarak, yeni konular açabilir, kullanıcı panelinde yeni üyelere kapatılmış olan tüm özellikleri artık kullanabilirsiniz.

 



Ne yapmalısın?


Yapman gereken, toplamda 10 adet mesaj atmak. Toplam mesaj sayın 10 olduğunda, uzman üyelik terfisi hemen otomatik olarak gerçekleşir. Ardından Destek vb. forumlara konu açabilirsin.


Avantajları?


Konu açabilir ve bu sayede desteğimizi anında alabilirsiniz, aşağıda görmüş olduğunuz rank sizin olur ve ayrıca kullanıcı panelinde yeni üyelere kapalı olan tüm özellikleriniz açılmış olur.

uzman_uye.png




Neden?


Yeni üyeler, Filmbol'da yeni konu açamazlar. Bu özelliği SPAM'lara karşı gelebilmek için aktifleştirdik.



Ayrıca..


Facebook ile üye olursanız uzman üyeliğiniz hemen aktif edilir. Çünkü; Spam olmadığınızı kanıtlamış olursunuz.

Bu konuyu yazdır

Filmin Yayınlanma Tarihi: 2006 Karayip Korsanları: 2 (Pirates Of Caribbaen: 2) Türkçe Dublaj Brrip-Xvid İndir
Yazar: BroserBros - 04-09-2018, Saat: 20:42 - Forum: Brrip-Xvid - Yorum Yok

indirme türü


Bulut + Premium

vizyon tarihi


14 Haziran 2006

Boyutlar


1,47

diller


[TR]

altyazilar


Yok [Eklenebilir]

Video Format: Avi


Audio Video Interleave (.AVI)

Video Detay


MPEG-4, 840 Kbps, 0,85 GB

imdb puanı


7,3 / 10,0 / 600,000

süre


131 dakika

Ses Kodek: AC3


Audio Coding 3 (AC3)

Ses Detay


640 Kbps, 6 Kanal, 648 Mb

rarsifresi


filmbol.org

Editör Puanı


8,3

Genislik Yukseklik


1280x528

sürüm


x263 | Brrip-Xvid




Film Detayları

Jack Sparrow'un, Uçan Hollandalının kaptanı Davy Jones'e kan borcu vardır. Bu kan borcunu ödemediği taktirde başına gelebilecek sonuçları da göze aldığında Jack, özellikle Davy'nin kölesi olma konusun da, borcunu ödemek zorunda gibi gözükmektedir.

Karayip Korsanları 2: Ölü Adamın Sandığı (2006) (Pirates of the Caribbean 2: Dead Man's Chest) Filmi İmdb'den 600.000 kişi tarafından oylandı ve 7,3 puan aldı. Bu film için editör puanı 8,3 olarak belirlendi. İyi Seyirler!


Teknik Detaylar


Kod:
General
Complete name                            : Pirates.of.the.Caribbean.Dead.Man's.Chest.2006.BRRip-XviD.TR.Filmbol.avi
Format                                   : AVI
Format/Info                              : Audio Video Interleave
File size                                : 1.47 GiB
Duration                                 : 2 h 21 min
Overall bit rate                         : 1 491 kb/s

Video
ID                                       : 0
Format                                   : AVC
Format/Info                              : Advanced Video Codec
Format profile                           : High@L4
Format settings                          : CABAC / 7 Ref Frames
Format settings, CABAC                   : Yes
Format settings, ReFrames                : 7 frames
Codec ID                                 : AVC1
Duration                                 : 2 h 21 min
Bit rate                                 : 840 kb/s
Width                                    : 1 280 pixels
Height                                   : 528 pixels
Display aspect ratio                     : 2.40:1
Frame rate                               : 23.976 (24000/1001) FPS
Color space                              : YUV
Chroma subsampling                       : 4:2:0
Bit depth                                : 8 bits
Scan type                                : Progressive
Bits/(Pixel*Frame)                       : 0.052
Stream size                              : 850 MiB (56%)
Writing library                          : x264 core 129 r2245 bc13772


Audio
ID                                       : 1
Format                                   : AC-3
Format/Info                              : Audio Coding 3
Codec ID                                 : 2000
Duration                                 : 2 h 21 min
Bit rate mode                            : Constant
Bit rate                                 : 640 kb/s
Channel(s)                               : 6 channels
Channel positions                        : Front: L C R, Side: L R, LFE
Sampling rate                            : 48.0 kHz
Frame rate                               : 31.250 FPS (1536 SPF)
Bit depth                                : 16 bits
Compression mode                         : Lossy
Stream size                              : 648 MiB (43%)
Alignment                                : Aligned on interleaves
Interleave, duration                     : 32  ms (0.77 video frame)
Service kind                             : Complete Main



Film Detayları


Karayip Korsanları 2

Karayip Korsanları 2

Karayip Korsanları 2

Karayip Korsanları 2

Karayip Korsanları 2




Film Fragmanı


Film Detayları

Brrip İndir


Turbobit İle İndir

Mega ile indir

Uptobox ile indir

Cloud Ru ile indir

Bu konuyu yazdır

Filmin Yayınlanma Tarihi: 2006 Karayip Korsanları: 2 (Pirates Of Caribbaen: 2) Türkçe Dublaj m720P İndir
Yazar: BroserBros - 04-09-2018, Saat: 20:42 - Forum: m720P - Yorum Yok

indirme türü


Bulut + Premium

vizyon tarihi


14 Haziran 2006

Boyutlar


1,50

diller


[TR]

altyazilar


Yok [Eklenebilir]

Video Format: Mkv


Matroska (.MKV)

Video Detay


MPEG-4, 840 Kbps, 0,85 GB

imdb puanı


7,3 / 10,0 / 600,000

süre


131 dakika

Ses Kodek: AC3


Audio Coding 3 (AC3)

Ses Detay


640 Kbps, 6 Kanal, 648 Mb

rarsifresi


filmbol.org

Editör Puanı


8,3

Genislik Yukseklik


1280x528

sürüm


x264 | m720P




Film Detayları

Jack Sparrow'un, Uçan Hollandalının kaptanı Davy Jones'e kan borcu vardır. Bu kan borcunu ödemediği taktirde başına gelebilecek sonuçları da göze aldığında Jack, özellikle Davy'nin kölesi olma konusun da, borcunu ödemek zorunda gibi gözükmektedir.

Karayip Korsanları 2: Ölü Adamın Sandığı (2006) (Pirates of the Caribbean 2: Dead Man's Chest) Filmi İmdb'den 600.000 kişi tarafından oylandı ve 7,3 puan aldı. Bu film için editör puanı 8,3 olarak belirlendi. İyi Seyirler!


Teknik Detaylar


Kod:
General
Complete name                            : Pirates.of.the.Caribbean.Dead.Man's.Chest.2006.m720P.BLURAY.x264.TR.Filmbol.mkv
Format                                   : Matroska
Format version                           : Version 4 / Version 2
File size                                : 1.51 GiB
Duration                                 : 2 h 30 min
Overall bit rate                         : 1 431 kb/s
Movie name                               : Pirates of the Caribbean 2 (2006) / m720P / Filmbol.org
Encoded date                             : UTC 2018-08-30 16:45:56
Writing application                      : mkvmerge v15.0.0 ('Duel with the Devil') 64-bit
Writing library                          : libebml v1.3.5 + libmatroska v1.4.7

Video
ID                                       : 1
Format                                   : AVC
Format/Info                              : Advanced Video Codec
Format profile                           : High@L4
Format settings                          : CABAC / 7 Ref Frames
Format settings, CABAC                   : Yes
Format settings, ReFrames                : 7 frames
Codec ID                                 : V_MPEG4/ISO/AVC
Duration                                 : 2 h 21 min
Bit rate                                 : 840 kb/s
Width                                    : 1 280 pixels
Height                                   : 528 pixels
Display aspect ratio                     : 2.40:1
Frame rate mode                          : Constant
Frame rate                               : 23.976 (24000/1001) FPS
Color space                              : YUV
Chroma subsampling                       : 4:2:0
Bit depth                                : 8 bits
Scan type                                : Progressive
Bits/(Pixel*Frame)                       : 0.052
Stream size                              : 850 MiB (55%)
Title                                    : m720P - Filmbol.org
Writing library                          : x264 core 129 r2245 bc13772
Default                                  : Yes
Forced                                   : No

Audio
ID                                       : 2
Format                                   : AC-3
Format/Info                              : Audio Coding 3
Codec ID                                 : A_AC3
Duration                                 : 2 h 30 min
Bit rate mode                            : Constant
Bit rate                                 : 640 kb/s
Channel(s)                               : 6 channels
Channel positions                        : Front: L C R, Side: L R, LFE
Sampling rate                            : 48.0 kHz
Frame rate                               : 31.250 FPS (1536 SPF)
Bit depth                                : 16 bits
Compression mode                         : Lossy
Stream size                              : 690 MiB (45%)
Title                                    : Türkçe - Filmbol.org
Language                                 : Turkish
Service kind                             : Complete Main
Default                                  : Yes
Forced                                   : No



Film Detayları


Karayip Korsanları 2

Karayip Korsanları 2

Karayip Korsanları 2

Karayip Korsanları 2

Karayip Korsanları 2




Film Fragmanı


Film Detayları

Mini 720P İndir


Turbobit İle İndir

Mega ile indir

Uptobox ile indir

Cloud Ru ile indir

Bu konuyu yazdır