Filmbol Forum Film İndir BRRip XviD v Polis Arabası (Cop Car) Türkçe Dublaj BRRip XviD İndir
Mega linklerinin şikayet edilmemesi için global erişime kapatıp sadece yorum yapanlara açıyoruz. Bu linkleri gizleme işlemini mecburen yapıyoruz ve yorum yapmanızın siteye değil size faydası vardır. Teşekürler yazmayı çok görüp, Random/Spam mesajlar atarak Mega linklerini açmaya çalışan kullanıcılara önce süresiz ban, devam ederse IP ban atacağız.
Filmbol'da moderatör olmak ister misiniz? Bizimle iletişime geçmek için tıklayın!
Polis Arabası (Cop Car) Türkçe Dublaj BRRip XviD İndir
BroserBros
Polis Arabası (Cop Car) Türkçe Dublaj BRRip XviD İndir
0
248
  • Derecelendirme: 0/5 - 0 oy
  • 1
  • 2
  • 3
  • 4
  • 5
Konuyu Okuyanlar:1 Ziyaretçi
Şuan Online!
Filmin Yayınlanma Tarihi: 2015 
WWW
Şuan Online!
BroserBros Kurucu Admin
*******
Admin








 Polis Arabası



İyi bir film değil, kötü desen o da değil. Gerilim desen değil. Komedi desen bir ara gülümsetti o kadar. Çocuk filmi desen bol küfür var. Bir tutam da dram eklemişler. Ama 'tuhaf bir suç filmi' denebilir. Film, evden kaçan 10 yaşlarında iki çocuğun şehrin epey uzağında bir alanda istemeden bulaştıkları tehlikeli süreci konu ediyor. Çocuklar, bazen 5 yaşındaymış gibi davranırken bazen de 18 yaşa uygun davranış sergiliyorlar. Film başlamak üzere derken bir baktım bitime 15 dakika var. O kadar süre hiçbirşey olmadan ne çabuk bitti diye şaşırırken film bağlanmadan bitiyor. Sıkılmadan izlenebilecek ilginç vasat bir film işte. ..yani 7 puan alacak bölümler de var 3 puanlık bölümler de. Kısacası beğenmedim diyemem. (Alıntı)

Polis Arabası (2015) (Cop Car) Filmi Imdb'den 30,000 kişi tarafından oylandı ve 6,3 puan aldı. Bu film için editör puanı 6,0 olarak belirlendi. İyi Seyirler!

Teknik Detaylar

Kod :
General
Complete name                            : /root/Desktop/8/Polis.Arabası.2015.BRRip.XviD.Filmbol.avi
Format                                   : AVI
Format/Info                              : Audio Video Interleave
File size                                : 205 MiB
Duration                                 : 12mn 26s
Overall bit rate                         : 2 301 Kbps

Video
ID                                       : 0
Format                                   : MPEG-4 Visual
Format profile                           : [email protected]
Format settings, BVOP                    : No
Format settings, QPel                    : No
Format settings, GMC                     : No warppoints
Format settings, Matrix                  : Default (H.263)
Codec ID                                 : XVID
Codec ID/Hint                            : XviD
Duration                                 : 12mn 26s
Bit rate                                 : 2 157 Kbps
Width                                    : 720 pixels
Height                                   : 300 pixels
Display aspect ratio                     : 2.40:1
Frame rate                               : 24.000 fps
Color space                              : YUV
Chroma subsampling                       : 4:2:0
Bit depth                                : 8 bits
Scan type                                : Progressive
Compression mode                         : Lossy
Bits/(Pixel*Frame)                       : 0.416
Stream size                              : 192 MiB (94%)
Writing library                          : XviD 64

Audio
ID                                       : 1
Format                                   : MPEG Audio
Format version                           : Version 1
Format profile                           : Layer 3
Codec ID                                 : 55
Codec ID/Hint                            : MP3
Duration                                 : 12mn 26s
Bit rate mode                            : Constant
Bit rate                                 : 128 Kbps
Channel(s)                               : 2 channels
Sampling rate                            : 48.0 KHz
Compression mode                         : Lossy
Stream size                              : 11.4 MiB (6%)
Alignment                                : Aligned on interleaves
Interleave, duration                     : 24 ms (0.58 video frame)

Film Detayları


 Polis Arabası

 Polis Arabası

 Polis Arabası


Film Fragmanı


Film Detayları

Brrip İndir

Uptobox ile indir

1Fichier ile indir

1Fichier'den İndiremiyor musun? Tıklayın!


Mega linki şuan da gizli. Kullanıma açmak için konuya yorum yapın ve ardından sayfayı yenileyin.

Mega


MediaFire ile indir



Konu ile Alakalı Benzer Konular
Konular Yazar Yorumlar Okunma Son Yorum
Filmin Yayınlanma Tarihi: 2002
Akıl Oyunları (A Beautiful Mind) - 2001 - TR - BRRip XviD | tt0268978 BroserBros 2 243 4 saat önce
Son Yorum: Furkan61
  Her Zaman Şeytan (The Devil All the Time) - 2020 - TR - BRRip XviD | tt7395114 TheSteeL 1 43 4 saat önce
Son Yorum: Furkan61
Filmin Yayınlanma Tarihi: 2020
Baba Aranıyor (Se busca papá) - 2020 - TR - BRRip XviD | tt12721188 TheSteeL 0 32 , Saat: 21:12
Son Yorum: TheSteeL
Filmin Yayınlanma Tarihi: 1999
Yeşil Yol (The Green Mile) - 1999 - TR - BRRip XviD | tt0120689 BroserBros 2 250 , Saat: 15:54
Son Yorum: Furkan61
Filmin Yayınlanma Tarihi: 2019
Beyaz Kentin Sessizliği (El silencio de la ciudad blanca) - 2019 - TR - BRRip XviD | tt8393332 BroserBros 1 249 , Saat: 15:38
Son Yorum: BroserBros

Hızlı Menü: