Hoşgeldin, Ziyaretçi: Giriş Yap Üye Ol


stats
Adblock'u kapattıysanız tıklayın.
Hoşgeldiniz!
Filmbol'u tercih ettiğiniz için teşekkürler, ancak ablock kullanarak devam edemezsiniz.
Merak etmeyin. Heryerden ardı ardına çıkan reklamlar görmeyeceksiniz :)

Sadece site içi 1 reklam göreceksin ve bu site gezintini etkilemeyecek.
Konuyu Oyla:
  • Derecelendirme: 0/5 - 0 oy
  • 1
  • 2
  • 3
  • 4
  • 5
Polar (2019) Türkçe Dublaj BLURAY m1080P İndir
#1
Filmin Yayınlanma Tarihi: 2019 

indirme türü


Bulut + Premium

vizyon tarihi


25 Ocak 2019

Boyutlar


2,08

diller


[TR]

altyazilar


KISIM [Eklenebilir]

Video Format: Mkv


Matroska (.MKV)

Video Detay


MPEG-4, 2119 Kbps, 1,76 GB

imdb puanı


6,3 / 10,0 / 60,000

süre


118 dakika

Ses Kodek: AC3


Audio Coding 3 (AC3)

Ses Detay


384 Kbps, 6 Kanal, 327 Mb

Editör Puanı


7,0

Genislik Yukseklik


1920-1080

sürüm


x264 | NF.WEBDL-m1080P



Film Detayları

Emekliye ayrılma planları olan dünyanın en iyi suikastçilerden birisi olan Duncan, her şeyi ile hazırdır ve hayallerini kurduğu temiz ve rahat bir yaşam sürmeye hazırlanmaktadır. Ancak onun işveren patronu, onunla alakalı aynı hayallere sahip değildir ve bir görev verir, Duncan hayallerine kavuşmak istiyorsa bu görevi yerine getirmelidir.

Polar (2019) Filmi Imdb'den 60,000 kişi tarafından oylandı ve 6,3 puan aldı. Bu film için editör puanı 7,0 olarak belirlendi. İyi Seyirler!


Teknik Detaylar


Kod:
General
Complete name                            : Polar.2019.m720p.NF.WEB-DL.x264.BLURAY.TR.Filmbol.mkv
Format                                   : Matroska
Format version                           : Version 4 / Version 2
File size                                : 1.37 GiB
Duration                                 : 1h 58mn
Overall bit rate                         : 1 654 Kbps
Movie name                               : Polar (2019) - Filmbol.org
Encoded date                             : UTC 2019-07-14 14:09:48
Writing application                      : mkvmerge v35.0.0 ('All The Love In The World') 64-bit
Writing library                          : libebml v1.3.9 + libmatroska v1.5.2

Video
ID                                       : 1
Format                                   : AVC
Format/Info                              : Advanced Video Codec
Format profile                           : Main@L3.1
Format settings, CABAC                   : Yes
Format settings, ReFrames                : 2 frames
Codec ID                                 : V_MPEG4/ISO/AVC
Duration                                 : 1h 58mn
Bit rate                                 : 1 268 Kbps
Width                                    : 1 280 pixels
Height                                   : 720 pixels
Display aspect ratio                     : 16:9
Frame rate mode                          : Constant
Frame rate                               : 23.976 (24000/1001) fps
Color space                              : YUV
Chroma subsampling                       : 4:2:0
Bit depth                                : 8 bits
Scan type                                : Progressive
Bits/(Pixel*Frame)                       : 0.057
Stream size                              : 1.05 GiB (77%)
Title                                    : m720P - Filmbol.org
Default                                  : Yes
Forced                                   : No

Audio
ID                                       : 2
Format                                   : AC-3
Format/Info                              : Audio Coding 3
Mode extension                           : CM (complete main)
Format settings, Endianness              : Big
Codec ID                                 : A_AC3
Duration                                 : 1h 58mn
Bit rate mode                            : Constant
Bit rate                                 : 384 Kbps
Channel(s)                               : 6 channels
Channel positions                        : Front: L C R, Side: L R, LFE
Sampling rate                            : 48.0 KHz
Frame rate                               : 31.250 fps (1536 spf)
Compression mode                         : Lossy
Stream size                              : 327 MiB (23%)
Title                                    : Türkçe - Filmbol.org
Language                                 : Turkish
Default                                  : Yes
Forced                                   : No

Text
ID                                       : 3
Format                                   : UTF-8
Codec ID                                 : S_TEXT/UTF8
Codec ID/Info                            : UTF-8 Plain Text
Duration                                 : 1h 57mn
Bit rate                                 : 2 bps
Count of elements                        : 98
Stream size                              : 2.41 KiB (0%)
Title                                    : KISIM
Language                                 : Turkish
Default                                  : Yes
Forced                                   : Yes



Film Detayları


Polar Turkce Dublaj indir

Polar Turkce Dublaj indir

Polar Turkce Dublaj indir

Polar Turkce Dublaj indir

Polar Turkce Dublaj indir



Film Fragmanı


Film Detayları

Mini 1080P İndir


Turbobit İle İndir

Uptobox ile indir

Dosya Co ile indir

Dosya Upload ile indir

Filmbol'da aşağıdaki linkler sadece üyelere sunulur. Ayrıca bu linklerde link kısaltma servisleri kullanılmaz, linke tek tık ile reklamsız erişirsiniz. Konu'ya yorum yapın ve sayfayı yenileyin. Reklamsız linkler (en az 3 en fazla 5 link) açılmış olacaktır. Not: Filmbol'a üye olmak tamamen ücretsizdir, en az 3 link kuralı 01.07.2019 tarihinden sonraki paylaşımlar için geçerlidir. Ancak çoğu film için en az bir premium link her zaman bulunur.

Mega

Dosyaco

Dosyaupload

Mediafire

Google Drive
 
Cevapla
#2
süper
 
Cevapla
#3
Teşekkür Ederim.
 
Cevapla
#4
Guzel
 
Cevapla
#5
sağol
 
Cevapla
  


Konu ile Alakalı Benzer Konular
Konular Yazar Yorumlar Okunma Son Yorum
Filmin Yayınlanma Tarihi: 2017 John Wick 2 (Chapter 2) Türkçe Dublaj BLURAY m1080P İndir BroserBros 4 112 , Saat: 18:42
Son Yorum: İSMAİL
Filmin Yayınlanma Tarihi: 2018 Adaletsiz - Dragged Across Concrete (2018) - Türkçe Dublaj m1080p BluRay İndir NtDTr 2 128 14-09-2019, Saat: 12:07
Son Yorum: farukilbay
Filmin Yayınlanma Tarihi: 2018 Şiddet Eylemleri (Acts of Violence) Türkçe Dublaj BLURAY m1080P İndir BroserBros 1 37 03-09-2019, Saat: 15:07
Son Yorum: Aspirin46
Filmin Yayınlanma Tarihi: 2019 The Hard Way (2019) Türkçe Dublaj BLURAY m1080P İndir BroserBros 3 134 29-08-2019, Saat: 23:41
Son Yorum: arda_26
Filmin Yayınlanma Tarihi: 2019 Triple Frontier (2019) Türkçe dublaj m1080P indir BroserBros 5 159 29-08-2019, Saat: 00:21
Son Yorum: gmazi658

Hızlı Menü:


Şu anda bu konuyu okuyanlar: 3 Ziyaretçi