Hoşgeldin, Ziyaretçi: Giriş Yap Üye Ol


stats
Adblock'u kapattıysanız tıklayın.
Hoşgeldiniz!
Filmbol'u tercih ettiğiniz için teşekkürler, ancak ablock kullanarak devam edemezsiniz.
Merak etmeyin. Heryerden ardı ardına çıkan reklamlar görmeyeceksiniz :)

Sadece site içi 1 reklam göreceksin ve bu site gezintini etkilemeyecek.
Konuyu Oyla:
  • Derecelendirme: 4/5 - 1 oy
  • 1
  • 2
  • 3
  • 4
  • 5
Pokemon Dedektif Pikachu (PokemonDetective Pikachu) Türkçe Dublaj BLURAY m1080P İndir
#1
Filmin Yayınlanma Tarihi: 2019 

indirme türü


Bulut + Premium

vizyon tarihi


10 Mayıs 2019

Boyutlar


1,90

diller


[TR]

altyazilar


Yok [Eklenebilir]

Video Format: Mkv


Matroska (.MKV)

Video Detay


MPEG-4, 2150 Kbps, 1,57GB

imdb puanı


6,8 / 10,0 / 75,000

süre


104 dakika

Ses Kodek: AC3


Audio Coding 3 (AC3)

Ses Detay


448 Kbps, 6 Kanal, 335 Mb

Editör Puanı


7,0

Genislik Yukseklik


1920-800

sürüm


x264 | m1080P





Pokemon Dedektif Pikachu


Film Detayları

Başarılı özel dedektif Harry Goodman esrarengiz bir şekilde kaybolur ve 21 yaşındaki oğlu Tim babasına neler olduğunu öğrenmek için kolları sıvar. Bu araştırmada Tim’e babasının eski Pokémon ortağı Dedektif Pikachu yardım eder. Pikachu esprili ve sevimli olduğu kadar iyi bir dedektiftir. Eşsiz bir şekilde birbirleriyle anlaşabildiklerini fark eden Tim ve Pikachu bu karmaşık sırrı çözmek için heyecan verici bir macerada güçlerini birleştirir. İnsanların ve Pokémonların birlikte yaşadığı Ryme Şehri’nin neon ışıklı sokaklarında ipuçları arayan ikili maceraları sırasında türlü türlü Pokémonlarla karşılaşır ve bu huzurlu hayatı yok edebilecek ve tüm Pokémon evrenini tehdit eden şoke edici bir komployu açığa çıkarır. Ryan Reynolds’ın sevimli Pokémon Pikachu’ya sesiyle hayat verdiği fantastik animasyon macerasının yönetmen koltuğunda “Köpekbalığı Hikayesi”, “Canavarlar Yaratıklara Karşı” ve “Goosebumps: Canavarlar Firarda” filmleriyle tanınan Rob Letterman oturuyor. Filmin oyuncu kadrosunda ise “Jurassic World: Yıkılmış Krallık”tan tanıdığımız Justice Smith, “Big Little Lies” dizisinden Kathryn Newton, Oscar adaylığı bulunan Ken Watanabe gibi isimler yer alıyor.

Pokemon Dedektif Pikachu (Pokemon Detective Pikachu) Filmi Imdb'den 75.000 kişi tarafından oylandı ve 6,8 puan aldı. Bu film için editör puanı 7,0 olarak belirlendi. İyi Seyirler!


Teknik Detaylar


Kod:
General
Complete name                            : Pokemon.Detektif.Pikacu.2019.m1080p.BLURAY.x264.TR.Filmbol.mkv
Format                                   : Matroska
Format version                           : Version 4 / Version 2
File size                                : 1.90 GiB
Duration                                 : 1h 44mn
Overall bit rate                         : 2 599 Kbps
Movie name                               : Pokemon Dedektif Pikachu (2019) - Filmbol.org
Encoded date                             : UTC 2019-07-26 06:41:20
Writing application                      : mkvmerge v35.0.0 ('All The Love In The World') 64-bit
Writing library                          : libebml v1.3.9 + libmatroska v1.5.2

Video
ID                                       : 1
Format                                   : AVC
Format/Info                              : Advanced Video Codec
Format profile                           : High@L4.1
Format settings, CABAC                   : Yes
Format settings, ReFrames                : 4 frames
Codec ID                                 : V_MPEG4/ISO/AVC
Duration                                 : 1h 44mn
Bit rate                                 : 2 150 Kbps
Width                                    : 1 920 pixels
Height                                   : 800 pixels
Display aspect ratio                     : 2.40:1
Frame rate mode                          : Constant
Frame rate                               : 23.976 (24000/1001) fps
Color space                              : YUV
Chroma subsampling                       : 4:2:0
Bit depth                                : 8 bits
Scan type                                : Progressive
Bits/(Pixel*Frame)                       : 0.058
Stream size                              : 1.57 GiB (83%)
Title                                    : m1080P - Filmbol.org
Writing library                          : x264 core 152
Default                                  : Yes
Forced                                   : No

Audio
ID                                       : 2
Format                                   : AC-3
Format/Info                              : Audio Coding 3
Mode extension                           : CM (complete main)
Format settings, Endianness              : Big
Codec ID                                 : A_AC3
Duration                                 : 1h 44mn
Bit rate mode                            : Constant
Bit rate                                 : 448 Kbps
Channel(s)                               : 6 channels
Channel positions                        : Front: L C R, Side: L R, LFE
Sampling rate                            : 48.0 KHz
Frame rate                               : 31.250 fps (1536 spf)
Compression mode                         : Lossy
Stream size                              : 335 MiB (17%)
Title                                    : Türkçe - Filmbol.org
Language                                 : Turkish
Default                                  : Yes
Forced                                   : No



Film Detayları


Pokemon Detective Pikachu

Pokemon Detective Pikachu

Pokemon Detective Pikachu




Film Fragmanı


Film Detayları

Mini 1080P İndir


Uptobox ile indir

Tusfiles ile indir

Filerio ile indir

LetsUpload ile indir

MegaUp ile indir

Filmbol'da aşağıdaki linkler sadece üyelere sunulur. Ayrıca bu linklerde link kısaltma servisleri kullanılmaz, linke tek tık ile reklamsız erişirsiniz. Konu'ya yorum yapın ve sayfayı yenileyin. Reklamsız linkler (en az 3 en fazla 5 link) açılmış olacaktır. Not: Filmbol'a üye olmak tamamen ücretsizdir, en az 3 link kuralı 01.07.2019 tarihinden sonraki paylaşımlar için geçerlidir. Ancak çoğu film için en az bir premium link her zaman bulunur.

Mega

Dosyaco

Dosyaupload

Mediafire

Google Drive
 
Cevapla
#2
çocukluğumuz gözümde canlandı
 
Cevapla
#3
evet ya ne güzel günlerdi
 
Cevapla
#4
çok güzeldi gerçekten
 
Cevapla
#5
uzun zamandır beklediğim film, teşekkürler
 
Cevapla
#6
Fragmanı güzeldi umarım flimi de güzeldir
 
Cevapla
#7
Big Grin pikaçuuuu
 
Cevapla
#8
güzel film
 
Cevapla
#9
Sleepy Sleepy Heart Heart
 
Cevapla
#10
güzel film teşekkürler
 
Cevapla
  


Konu ile Alakalı Benzer Konular
Konular Yazar Yorumlar Okunma Son Yorum
Filmin Yayınlanma Tarihi: 2019 IO (2019) Türkçe Dublaj BLURAY m1080P İndir BroserBros 1 99 02-08-2019, Saat: 15:23
Son Yorum: ahmetyee1

Hızlı Menü:


Şu anda bu konuyu okuyanlar: 1 Ziyaretçi