Hoşgeldin, Ziyaretçi: Giriş Yap Üye Ol


stats
Adblock'u kapattıysanız tıklayın.
Hoşgeldiniz!
Filmbol'u tercih ettiğiniz için teşekkürler, ancak ablock kullanarak devam edemezsiniz.
Merak etmeyin. Heryerden ardı ardına çıkan reklamlar görmeyeceksiniz :)

Sadece site içi 1 reklam göreceksin ve bu site gezintini etkilemeyecek.
Konuyu Oyla:
  • Derecelendirme: 0/5 - 0 oy
  • 1
  • 2
  • 3
  • 4
  • 5
Pokemon Dedektif Pikachu (Pokemon Detective Pikachu) Türkçe Dublaj Brrip Xvid İndir
#1
Filmin Yayınlanma Tarihi: 2019 

indirme türü


Bulut + Premium

vizyon tarihi


10 Mayıs 2019

Boyutlar


1,26

diller


[TR]

altyazilar


Yok [Eklenebilir]

Video Format: Avi


Audio Video Interleave (.AVI)

Video Detay


MPEG-4, 1598 Kbps, 1,17GB

imdb puanı


6,8 / 10,0 / 75,000

süre


104 dakika

Ses Kodek: MP3


MPEG-1 Audio Layer III (MP3)

Ses Detay


128 Kbps, 2 Kanal, 96 Mb

Editör Puanı


7,0

Genislik Yukseklik


720-302

sürüm


h263 | Brrip Xvid





Pokemon Dedektif Pikachu


Film Detayları

Başarılı özel dedektif Harry Goodman esrarengiz bir şekilde kaybolur ve 21 yaşındaki oğlu Tim babasına neler olduğunu öğrenmek için kolları sıvar. Bu araştırmada Tim’e babasının eski Pokémon ortağı Dedektif Pikachu yardım eder. Pikachu esprili ve sevimli olduğu kadar iyi bir dedektiftir. Eşsiz bir şekilde birbirleriyle anlaşabildiklerini fark eden Tim ve Pikachu bu karmaşık sırrı çözmek için heyecan verici bir macerada güçlerini birleştirir. İnsanların ve Pokémonların birlikte yaşadığı Ryme Şehri’nin neon ışıklı sokaklarında ipuçları arayan ikili maceraları sırasında türlü türlü Pokémonlarla karşılaşır ve bu huzurlu hayatı yok edebilecek ve tüm Pokémon evrenini tehdit eden şoke edici bir komployu açığa çıkarır. Ryan Reynolds’ın sevimli Pokémon Pikachu’ya sesiyle hayat verdiği fantastik animasyon macerasının yönetmen koltuğunda “Köpekbalığı Hikayesi”, “Canavarlar Yaratıklara Karşı” ve “Goosebumps: Canavarlar Firarda” filmleriyle tanınan Rob Letterman oturuyor. Filmin oyuncu kadrosunda ise “Jurassic World: Yıkılmış Krallık”tan tanıdığımız Justice Smith, “Big Little Lies” dizisinden Kathryn Newton, Oscar adaylığı bulunan Ken Watanabe gibi isimler yer alıyor.

Pokemon Dedektif Pikachu (Pokemon Detective Pikachu) Filmi Imdb'den 75.000 kişi tarafından oylandı ve 6,8 puan aldı. Bu film için editör puanı 7,0 olarak belirlendi. İyi Seyirler!


Teknik Detaylar


Kod:
General
Complete name                            : Pokemon.Dedektif.Pikacu.2019.BRRip.XviD.TR.Filmbol.avi
Format                                   : AVI
Format/Info                              : Audio Video Interleave
File size                                : 1.27 GiB
Duration                                 : 1h 44mn
Overall bit rate                         : 1 740 Kbps

Video
ID                                       : 0
Format                                   : MPEG-4 Visual
Format profile                           : Simple@L5
Format settings, BVOP                    : No
Format settings, QPel                    : No
Format settings, GMC                     : No warppoints
Format settings, Matrix                  : Default (H.263)
Codec ID                                 : XVID
Codec ID/Hint                            : XviD
Duration                                 : 1h 44mn
Bit rate                                 : 1 598 Kbps
Width                                    : 720 pixels
Height                                   : 302 pixels
Display aspect ratio                     : 2.40:1
Frame rate                               : 23.976 fps
Color space                              : YUV
Chroma subsampling                       : 4:2:0
Bit depth                                : 8 bits
Scan type                                : Progressive
Compression mode                         : Lossy
Bits/(Pixel*Frame)                       : 0.307
Stream size                              : 1.17 GiB (92%)
Writing library                          : Lavc58.35.100

Audio
ID                                       : 1
Format                                   : MPEG Audio
Format version                           : Version 1
Format profile                           : Layer 3
Mode                                     : Joint stereo
Mode extension                           : MS Stereo
Codec ID                                 : 55
Codec ID/Hint                            : MP3
Duration                                 : 1h 44mn
Bit rate mode                            : Constant
Bit rate                                 : 128 Kbps
Channel(s)                               : 2 channels
Sampling rate                            : 48.0 KHz
Compression mode                         : Lossy
Stream size                              : 95.6 MiB (7%)
Alignment                                : Aligned on interleaves
Interleave, duration                     : 24 ms (0.58 video frame)



Film Detayları


Pokemon Detective Pikachu

Pokemon Detective Pikachu

Pokemon Detective Pikachu




Film Fragmanı


Film Detayları

Brrip İndir


Uptobox ile indir

Tusfiles ile indir

Filerio ile indir

LetsUpload ile indir

MegaUp ile indir

Filmbol'da aşağıdaki linkler sadece üyelere sunulur. Ayrıca bu linklerde link kısaltma servisleri kullanılmaz, linke tek tık ile reklamsız erişirsiniz. Konu'ya yorum yapın ve sayfayı yenileyin. Reklamsız linkler (en az 3 en fazla 5 link) açılmış olacaktır. Not: Filmbol'a üye olmak tamamen ücretsizdir, en az 3 link kuralı 01.07.2019 tarihinden sonraki paylaşımlar için geçerlidir. Ancak çoğu film için en az bir premium link her zaman bulunur.

Mega

Dosyaco

Dosyaupload

Mediafire

Google Drive
 
Cevapla
  


Konu ile Alakalı Benzer Konular
Konular Yazar Yorumlar Okunma Son Yorum
Filmin Yayınlanma Tarihi: 2019 IO (2019) Türkçe Dublaj Brrip Xvid İndir BroserBros 2 175 15-07-2019, Saat: 20:13
Son Yorum: BlackWhite
Filmin Yayınlanma Tarihi: 2017 Thor: Ragnarok Türkçe Dublaj Brrip-Xvid İndir DRMOV 2 801 04-02-2019, Saat: 13:15
Son Yorum: BroserBros
Filmin Yayınlanma Tarihi: 2018 Ak Kuyruklu Geyik Avcısının Mirası (The Legacy of a..) Türkçe Dublaj Brrip-Xvid İndir DRMOV 0 182 02-02-2019, Saat: 12:59
Son Yorum: DRMOV
Filmin Yayınlanma Tarihi: 2018 Rampage: Büyük Yıkım (2018) Türkçe Dublaj Brrip-Xvid İndir BroserBros 2 1,472 08-01-2019, Saat: 20:58
Son Yorum: onurayaz
Filmin Yayınlanma Tarihi: 2018 Tomb Raider Türkçe Dublaj Brrip-Xvid İndir BroserBros 0 666 26-07-2018, Saat: 22:38
Son Yorum: BroserBros

Hızlı Menü:


Şu anda bu konuyu okuyanlar: 1 Ziyaretçi