Hoşgeldin, Ziyaretçi: Giriş Yap Üye Ol


Konuyu Oyla:
  • Derecelendirme: 0/5 - 0 oy
  • 1
  • 2
  • 3
  • 4
  • 5
Title: Pokemon Dedektif Pikachu (Pokemon Detective Pikachu) Türkçe Dublaj Brrip Xvid İndir
Gösterim Stili
#1
Filmin Yayınlanma Tarihi: 2019 

indirme türü


Bulut + Premium

vizyon tarihi


10 Mayıs 2019

Boyutlar


1,26

diller


[TR]

altyazilar


Yok [Eklenebilir]

Video Format: Avi


Audio Video Interleave (.AVI)

Video Detay


MPEG-4, 1598 Kbps, 1,17GB

imdb puanı


6,8 / 10,0 / 75,000

süre


104 dakika

Ses Kodek: MP3


MPEG-1 Audio Layer III (MP3)

Ses Detay


128 Kbps, 2 Kanal, 96 Mb

Editör Puanı


7,0

Genislik Yukseklik


720-302

sürüm


h263 | Brrip Xvid




Pokemon Dedektif Pikachu


Film Detayları

Başarılı özel dedektif Harry Goodman esrarengiz bir şekilde kaybolur ve 21 yaşındaki oğlu Tim babasına neler olduğunu öğrenmek için kolları sıvar. Bu araştırmada Tim’e babasının eski Pokémon ortağı Dedektif Pikachu yardım eder. Pikachu esprili ve sevimli olduğu kadar iyi bir dedektiftir. Eşsiz bir şekilde birbirleriyle anlaşabildiklerini fark eden Tim ve Pikachu bu karmaşık sırrı çözmek için heyecan verici bir macerada güçlerini birleştirir. İnsanların ve Pokémonların birlikte yaşadığı Ryme Şehri’nin neon ışıklı sokaklarında ipuçları arayan ikili maceraları sırasında türlü türlü Pokémonlarla karşılaşır ve bu huzurlu hayatı yok edebilecek ve tüm Pokémon evrenini tehdit eden şoke edici bir komployu açığa çıkarır. Ryan Reynolds’ın sevimli Pokémon Pikachu’ya sesiyle hayat verdiği fantastik animasyon macerasının yönetmen koltuğunda “Köpekbalığı Hikayesi”, “Canavarlar Yaratıklara Karşı” ve “Goosebumps: Canavarlar Firarda” filmleriyle tanınan Rob Letterman oturuyor. Filmin oyuncu kadrosunda ise “Jurassic World: Yıkılmış Krallık”tan tanıdığımız Justice Smith, “Big Little Lies” dizisinden Kathryn Newton, Oscar adaylığı bulunan Ken Watanabe gibi isimler yer alıyor.

Pokemon Dedektif Pikachu (Pokemon Detective Pikachu) Filmi Imdb'den 75.000 kişi tarafından oylandı ve 6,8 puan aldı. Bu film için editör puanı 7,0 olarak belirlendi. İyi Seyirler!


Teknik Detaylar

Kod:
General
Complete name                            : Pokemon.Dedektif.Pikacu.2019.BRRip.XviD.TR.Filmbol.avi
Format                                   : AVI
Format/Info                              : Audio Video Interleave
File size                                : 1.27 GiB
Duration                                 : 1h 44mn
Overall bit rate                         : 1 740 Kbps

Video
ID                                       : 0
Format                                   : MPEG-4 Visual
Format profile                           : Simple@L5
Format settings, BVOP                    : No
Format settings, QPel                    : No
Format settings, GMC                     : No warppoints
Format settings, Matrix                  : Default (H.263)
Codec ID                                 : XVID
Codec ID/Hint                            : XviD
Duration                                 : 1h 44mn
Bit rate                                 : 1 598 Kbps
Width                                    : 720 pixels
Height                                   : 302 pixels
Display aspect ratio                     : 2.40:1
Frame rate                               : 23.976 fps
Color space                              : YUV
Chroma subsampling                       : 4:2:0
Bit depth                                : 8 bits
Scan type                                : Progressive
Compression mode                         : Lossy
Bits/(Pixel*Frame)                       : 0.307
Stream size                              : 1.17 GiB (92%)
Writing library                          : Lavc58.35.100

Audio
ID                                       : 1
Format                                   : MPEG Audio
Format version                           : Version 1
Format profile                           : Layer 3
Mode                                     : Joint stereo
Mode extension                           : MS Stereo
Codec ID                                 : 55
Codec ID/Hint                            : MP3
Duration                                 : 1h 44mn
Bit rate mode                            : Constant
Bit rate                                 : 128 Kbps
Channel(s)                               : 2 channels
Sampling rate                            : 48.0 KHz
Compression mode                         : Lossy
Stream size                              : 95.6 MiB (7%)
Alignment                                : Aligned on interleaves
Interleave, duration                     : 24 ms (0.58 video frame)



Film Detayları


Pokemon Detective Pikachu

Pokemon Detective Pikachu

Pokemon Detective Pikachu




Film Fragmanı


Film Detayları

Brrip İndir


Uptobox ile indir

LetsUpload ile indir

Mega Upload ile indir


Mega linki şuan da gizli. Kullanıma açmak için konuya yorum yapın ve ardından sayfayı yenileyin. Ayrıca bu linki açtığınızda reklamsız olarak erişebileceğinizi unutmayın.

Mega


nkhL
 
Cevapla
#2
teşekkürler
 
Cevapla
#3
pikkacuuu
 
Cevapla
#4
Teşekkürler
 
Cevapla
  


Konu ile Alakalı Benzer Konular
Konular Yazar Yorumlar Okunma Son Yorum
Filmin Yayınlanma Tarihi: 2014 Malefiz (Maleficent) Türkçe Dublaj BRRip XviD indir BroserBros 3 138 , Saat: 17:36
Son Yorum: Nyx Ulric
Filmin Yayınlanma Tarihi: 2015 Çılgın Max: Öfkeli Yollar (2015) Türkçe Dublaj Brrip-Xvid İndir BroserBros 2 2,022 05-02-2020, Saat: 16:00
Son Yorum: Ap0calypse
Filmin Yayınlanma Tarihi: 2018 Karınca-Adam ve Eşek Arısı (Ant-Man and Wasp) Türkçe Dublaj Brrip Xvid İndir BroserBros 2 419 05-02-2020, Saat: 14:50
Son Yorum: Ap0calypse
Filmin Yayınlanma Tarihi: 2016 Ninja Kaplumbağalar: Gölgelerin İçinden Türkçe Dublaj Brrip-Xvid İndir BroserBros 3 1,377 05-02-2020, Saat: 13:36
Son Yorum: Ap0calypse
Filmin Yayınlanma Tarihi: 2018 Rampage: Büyük Yıkım (2018) Türkçe Dublaj Brrip-Xvid İndir BroserBros 3 1,821 31-01-2020, Saat: 18:47
Son Yorum: haytoki

Hızlı Menü:


Browsing: 1 Ziyaretçi