Filmbol Forum Film İndir BRRip XviD v Pi'nin Yaşamı (Life of Pi) Türkçe Dublaj BRRip XviD indir
Mega linklerinin şikayet edilmemesi için global erişime kapatıp sadece yorum yapanlara açıyoruz. Bu linkleri gizleme işlemini mecburen yapıyoruz ve yorum yapmanızın siteye değil size faydası vardır. Teşekürler yazmayı çok görüp, Random/Spam mesajlar atarak Mega linklerini açmaya çalışan kullanıcılara önce süresiz ban, devam ederse IP ban atacağız.
Filmbol'da moderatör olmak ister misiniz? Bizimle iletişime geçmek için tıklayın!
Pi'nin Yaşamı (Life of Pi) Türkçe Dublaj BRRip XviD indir
BroserBros
Pi'nin Yaşamı (Life of Pi) Türkçe Dublaj BRRip XviD indir
6
465
  • Derecelendirme: 0/5 - 0 oy
  • 1
  • 2
  • 3
  • 4
  • 5
Konuyu Okuyanlar:3 Ziyaretçi
Şuan Online!
Filmin Yayınlanma Tarihi: 2012 
WWW
Şuan Online!
BroserBros Kurucu Admin
*******
Admin








 Pi'nin Yaşamı



Pi, ailesi ile sahibi oldukları hayvanat bahçesinde çalışmaktadır. Ailesi, Hindistan'da daha fazla kalamayacaklarına karar verirler ve hayvanları ile birlikte uçsuz bir yolculuğa çıkarlar. Ancak gemi ile yaptıkları bu yolculukta bir sorun oluşur ve gemi batar. Pi'nin ailesi gemi battıktan hemen sonra ölür, Pi tek kalmıştır ve küçük bir filika ile birlikte yanında bir zebra, bir sırtlan, bir orangutan ve bir kaplan kalırlar. Pi hem hayvanat bahçesinde öğrendikleri ile hemde kıvrak zekası ile hayatta kalmaya başarır ancak bu uçsuz bucaksız Okyanus'ta ne yapabilir ve daha fazla nasıl hayatta kalabilir ki?

Pi'nin Yaşamı (2012) (Life of Pi) Filmi Imdb'den 560,000 kişi tarafından oylandı ve 7,9 puan aldı. Bu film için editör puanı 8,5 olarak belirlendi. İyi Seyirler!

Teknik Detaylar

Kod :
General
Complete name                            : /root/Desktop/2/Pinin.Yaşamı.2012.BDRip.XviD.TR.Filmbol.avi
Format                                   : AVI
Format/Info                              : Audio Video Interleave
File size                                : 1.41 GiB
Duration                                 : 2h 6mn
Overall bit rate                         : 1 587 Kbps

Video
ID                                       : 0
Format                                   : MPEG-4 Visual
Format profile                           : Advanced [email protected]
Format settings, BVOP                    : 1
Format settings, QPel                    : No
Format settings, GMC                     : No warppoints
Format settings, Matrix                  : Custom
Codec ID                                 : XVID
Codec ID/Hint                            : XviD
Duration                                 : 2h 6mn
Bit rate                                 : 1 446 Kbps
Width                                    : 688 pixels
Height                                   : 368 pixels
Display aspect ratio                     : 1.85:1
Frame rate                               : 23.976 (23976/1000) fps
Color space                              : YUV
Chroma subsampling                       : 4:2:0
Bit depth                                : 8 bits
Scan type                                : Progressive
Compression mode                         : Lossy
Bits/(Pixel*Frame)                       : 0.238
Stream size                              : 1.28 GiB (91%)
Writing library                          : XviD 65

Audio
ID                                       : 1
Format                                   : MPEG Audio
Format version                           : Version 1
Format profile                           : Layer 3
Codec ID                                 : 55
Codec ID/Hint                            : MP3
Duration                                 : 2h 6mn
Bit rate mode                            : Constant
Bit rate                                 : 128 Kbps
Channel(s)                               : 2 channels
Sampling rate                            : 48.0 KHz
Compression mode                         : Lossy
Stream size                              : 116 MiB (8%)
Alignment                                : Aligned on interleaves
Interleave, duration                     : 24 ms (0.58 video frame)
Writing library                          : LAME

Film Detayları


 Pi'nin Yaşamı

 Pi'nin Yaşamı

 Pi'nin Yaşamı


Film Fragmanı


Film Detayları


Uptobox ile indir

1Fichier ile indir

1Fichier'den İndiremiyor musun? Tıklayın!


Mega linki şuan da gizli. Kullanıma açmak için konuya yorum yapın ve ardından sayfayı yenileyin.

Mega


MediaFire ile indir

Şuan Offine!
Şuan Offine!
filmbolcu Süper Üye
***
Super Üye

  • Konular12
  • Mesajlar33
  • Rep puanı 2
Süpersiniz. Çok teşekkürler.
Şuan Offine!
Şuan Offine!
Nyx Ulric Uzman Üye
**
Uzman Üye

  • Konular0
  • Mesajlar8
  • Rep puanı 0
Teşekkürler.
Şuan Offine!
Şuan Offine!
filmbolcu Süper Üye
***
Super Üye

  • Konular12
  • Mesajlar33
  • Rep puanı 2
Hocam filmin sesinde senkron/kayma sorunu var; düzeltebilir misin?
Şuan Online!
Şuan Online!
BroserBros Kurucu Admin
*******
Admin

Kontrol ediyorum.

Edit: 2K-MS ses kayması var. Düzeltiyorum, bildirim için teşekkürler!
Şuan Online!
Şuan Online!
BroserBros Kurucu Admin
*******
Admin

Ses kayması düzeltildi. Linkler yenilendi
Şuan Online!
Şuan Online!
Furkan61 Süper Üye
***
Super Üye

  • Konular0
  • Mesajlar129
  • Rep puanı 1
güzel


Konu ile Alakalı Benzer Konular
Konular Yazar Yorumlar Okunma Son Yorum
Filmin Yayınlanma Tarihi: 1972
Baba (The Godfather) - 1972 - TR - BRRip XviD | tt0068646 BroserBros 3 255 1 saat önce
Son Yorum: Furkan61
Filmin Yayınlanma Tarihi: 1974
Baba 2 (The Godfather: Part II) - 1974 - TR - BRRip XviD | tt0071562 BroserBros 2 402 1 saat önce
Son Yorum: BroserBros
Filmin Yayınlanma Tarihi: 2008
VOL-i (WALL-E) - 2008 - TR - BRRip XviD | tt0910970 BroserBros 4 343 1 saat önce
Son Yorum: BroserBros
Filmin Yayınlanma Tarihi: 1990
Baba 3 (The Godfather: Part III) - 1990 - TR - BRRip XviD | tt0099674 BroserBros 3 286 2 saat önce
Son Yorum: Furkan61
Filmin Yayınlanma Tarihi: 1998
Armageddon (Armageddon) - 1998 - TR - BRRip XviD | tt0120591 BroserBros 1 266 4 saat önce
Son Yorum: BroserBros

Hızlı Menü: