Filmbol Forum Film İndir BRRip XviD v Patron Gibi (Like a Boss) - 2020 - TR - BRRip XviD
Moderatör Alımları Başladı! Başvuru yapmak için tıklayın.
Filmbol Premium'da %50'e varan indirim fırsatı!
Patron Gibi (Like a Boss) - 2020 - TR - BRRip XviD
BroserBros
Patron Gibi (Like a Boss) - 2020 - TR - BRRip XviD
0
148
  • Derecelendirme: 0/5 - 0 oy
  • 1
  • 2
  • 3
  • 4
  • 5
Konuyu Okuyanlar:1 Ziyaretçi
Şuan Online!
Filmin Yayınlanma Tarihi: 2020 
Şuan Online!
BroserBros Kurucu Admin
*******
Admin

Vizyon Tarihi


21 Şubat 2020

imdb puanı


4,4 / 6,500

süre


83 dakika

Editör Puanı


4,9 / 10

Video Format: Avi


Audio Video Interleave (.AVI)

Ses Kodek: MP3


MPEG-1 Audio Layer III (MP3)

sürüm


h263 | BRRip XviD

Boyutlar


1,01 GB



 Patron Gibi



Patron Gibi filminde iki arkadaş maaşlı çalışmanın onlar için istedikleri hayat olmadığına karar verir ve birlikte bir şirket kurarlar. Zorlu bir süreçten sonra işler beklemedikleri kadar iyi gittiğinde, artık kendi patronları olurlar....

Patron Gibi (2020) (Like a Boss) Filmi Imdb'den 6,500 kişi tarafından oylandı ve 4,4 puan aldı. Bu film için editör puanı 4,9 olarak belirlendi. İyi Seyirler!

Teknik Detaylar

Kod :
General
Complete name                            : /root/Desktop/Patron.Gibi.2020.BRRip.XviD.TR.Filmbol.avi
Format                                  : AVI
Format/Info                              : Audio Video Interleave
File size                                : 1.01 GiB
Duration                                : 1h 23mn
Overall bit rate                        : 1 737 Kbps

Video
ID                                      : 0
Format                                  : MPEG-4 Visual
Format profile                          : Simple@L5
Format settings, BVOP                    : No
Format settings, QPel                    : No
Format settings, GMC                    : No warppoints
Format settings, Matrix                  : Default (H.263)
Codec ID                                : XVID
Codec ID/Hint                            : XviD
Duration                                : 1h 23mn
Bit rate                                : 1 596 Kbps
Width                                    : 720 pixels
Height                                  : 300 pixels
Display aspect ratio                    : 2.40:1
Frame rate                              : 23.976 fps
Color space                              : YUV
Chroma subsampling                      : 4:2:0
Bit depth                                : 8 bits
Scan type                                : Progressive
Compression mode                        : Lossy
Bits/(Pixel*Frame)                      : 0.308
Stream size                              : 952 MiB (92%)
Writing library                          : Lavc58.35.100

Audio
ID                                      : 1
Format                                  : MPEG Audio
Format version                          : Version 1
Format profile                          : Layer 3
Mode                                    : Joint stereo
Codec ID                                : 55
Codec ID/Hint                            : MP3
Duration                                : 1h 23mn
Bit rate mode                            : Constant
Bit rate                                : 128 Kbps
Channel(s)                              : 2 channels
Sampling rate                            : 48.0 KHz
Compression mode                        : Lossy
Stream size                              : 76.4 MiB (7%)
Alignment                                : Aligned on interleaves
Interleave, duration                    : 24 ms (0.58 video frame)

Film Detayları


 Patron Gibi

 Patron Gibi

 Patron Gibi


Film Fragmanı


Film Detayları


Uptobox ile indir

1Fichier ile indir

1Fichier'den İndiremiyor musun? Tıklayın!


Bunun için üzgünüz ancak, bu linke sadece premium üyeler erişebilir.

Filmbol Cloud



Konu ile Alakalı Benzer Konular
Konular Yazar Yorumlar Okunma Son Yorum
Filmin Yayınlanma Tarihi: 2014
Lucy (2014) Türkçe Dublaj BRRip XviD İndir BroserBros 1 262 19-09-2020, Saat: 00:56
Son Yorum: sectechno
Filmin Yayınlanma Tarihi: 2020
The Hunt (Av) - 2020 - TR - BRRip XviD BroserBros 0 313 18-09-2020, Saat: 19:28
Son Yorum: BroserBros
Filmin Yayınlanma Tarihi: 2018
Gözbebeğim (Pupille) - 2018 - TR - BRRip XviD BroserBros 0 313 18-09-2020, Saat: 13:02
Son Yorum: BroserBros
Filmin Yayınlanma Tarihi: 2019
Umut Vadisi (Hope Gap) - 2019 - TR - BRRip XviD BroserBros 0 314 18-09-2020, Saat: 12:50
Son Yorum: BroserBros
Filmin Yayınlanma Tarihi: 2019
Cep Herkülü: Naim Süleymanoğlu (Cep Herkülü: Naim Süleymanoğlu) - 2019 - TR - BRRip XviD BroserBros 0 114 15-09-2020, Saat: 21:51
Son Yorum: BroserBros

Hızlı Menü: