Filmbol Forum Film İndir BRRip XviD v Paradise Beach (2019) Türkçe Dublaj Brrip Xvid İndir
Filmbol'da moderatör olmak ister misiniz? Bizimle iletişime geçmek için tıklayın!
Paradise Beach (2019) Türkçe Dublaj Brrip Xvid İndir
BroserBros
Paradise Beach (2019) Türkçe Dublaj Brrip Xvid İndir
1
323
  • Derecelendirme: 0/5 - 0 oy
  • 1
  • 2
  • 3
  • 4
  • 5
Konuyu Okuyanlar:1 Ziyaretçi
Şuan Online!
Filmin Yayınlanma Tarihi: 2019 
Şuan Online!
BroserBros Kurucu Admin
*******
Admin

indirme türü


Bulut + Premium

Vizyon Tarihi


20 Şubat 2019

Boyutlar


1,10

diller


[TR]

altyazilar


KISIM [Eklenebilir]

Video Format: Avi


Audio Video Interleave (.AVI)

Video Detay


MPEG-4, 1529 Kbps, 1,00GB

imdb puanı


4,4 / 10,0 / 1,000

süre


93 dakika

Ses Kodek: MP3


MPEG-1 Audio Layer III (MP3)

Ses Detay


128 Kbps, 2 Kanal, 87Mb

Editör Puanı


4,0

Genislik Yukseklik


720-306

sürüm


h263 | Brrip Xvid




Paradise Beach


Film Detayları

Eski dost olan soyguncular Tayland'da tekrar birleşirler. Eski dostlar, eskisi gibi başarılıdırlar. Ancak 15 yıl önce yakalanan ve hapse giren dostları, payınını almak için geri dönecektir.

Paradise Beach Filmi Imdb'den 1,000 kişi tarafından oylandı ve 4,4 puan aldı. Bu film için editör puanı 4,0 olarak belirlendi. İyi Seyirler!


Teknik Detaylar


Kod :
General
Complete name                            : Paradise.Beach.2019.HDRip.XviD.TR.Filmbol.avi
Format                                   : AVI
Format/Info                              : Audio Video Interleave
File size                                : 1.10 GiB
Duration                                 : 1h 34mn
Overall bit rate                         : 1 670 Kbps

Video
ID                                       : 0
Format                                   : MPEG-4 Visual
Format profile                           : Simple@L5
Format settings, BVOP                    : No
Format settings, QPel                    : No
Format settings, GMC                     : No warppoints
Format settings, Matrix                  : Default (H.263)
Codec ID                                 : XVID
Codec ID/Hint                            : XviD
Duration                                 : 1h 34mn
Bit rate                                 : 1 529 Kbps
Width                                    : 720 pixels
Height                                   : 306 pixels
Display aspect ratio                     : 2.35:1
Frame rate                               : 24.000 fps
Color space                              : YUV
Chroma subsampling                       : 4:2:0
Bit depth                                : 8 bits
Scan type                                : Progressive
Compression mode                         : Lossy
Bits/(Pixel*Frame)                       : 0.289
Stream size                              : 1.00 GiB (92%)
Writing library                          : Lavc58.35.100

Audio
ID                                       : 1
Format                                   : MPEG Audio
Format version                           : Version 1
Format profile                           : Layer 3
Mode                                     : Joint stereo
Mode extension                           : MS Stereo
Codec ID                                 : 55
Codec ID/Hint                            : MP3
Duration                                 : 1h 34mn
Bit rate mode                            : Constant
Bit rate                                 : 128 Kbps
Channel(s)                               : 2 channels
Sampling rate                            : 48.0 KHz
Compression mode                         : Lossy
Stream size                              : 86.1 MiB (8%)
Alignment                                : Aligned on interleaves
Interleave, duration                     : 24 ms (0.58 video frame)

Film Detayları


Paradise Beach


Film Fragmanı


Film Detayları

Brrip İndir



Uptobox ile indir

LetsUpload ile indir

Mega ile indir

MediaFire ile indir

Şuan Offine!
Şuan Offine!
Ali.ozdemir.46 Yeni Üye
*
Üye

  • Konular0
  • Mesajlar5
  • Rep puanı 0
ghfudstfghjkljb


Konu ile Alakalı Benzer Konular
Konular Yazar Yorumlar Okunma Son Yorum
Filmin Yayınlanma Tarihi: 2019
Luce (Luce) - 2019 - TR - BRRip XviD BroserBros 0 15 8 saat önce
Son Yorum: BroserBros
Filmin Yayınlanma Tarihi: 2020
Aşka İnan (I Still Believe) - 2020 - TR - BRRip XviD BroserBros 0 14 9 saat önce
Son Yorum: BroserBros
Filmin Yayınlanma Tarihi: 2018
Döndüm Ben (Yerli) - 2018 - TR - BRRip XviD BroserBros 0 35 27-11-2020, Saat: 18:40
Son Yorum: BroserBros
Filmin Yayınlanma Tarihi: 2018
Bana Bir Soygun Yaz 2 (Yerli) - 2018 - TR - BRRip XviD BroserBros 0 27 27-11-2020, Saat: 18:26
Son Yorum: BroserBros
Filmin Yayınlanma Tarihi: 2007
Amerikan Pastası 6: Beta Evi (American Pie: Beta House) - 2007 - TR - BRRip XviD BroserBros 2 247 27-11-2020, Saat: 14:31
Son Yorum: tayyib5731

Hızlı Menü: