Filmbol Forum Film İndir BRRip XviD v Oyuncak Hikayesi 4 (Toy Story 4) Türkçe Dublaj Brrip Xvid İndir
Filmbol'da moderatör olmak ister misiniz? Bizimle iletişime geçmek için tıklayın!
Oyuncak Hikayesi 4 (Toy Story 4) Türkçe Dublaj Brrip Xvid İndir
BroserBros
Oyuncak Hikayesi 4 (Toy Story 4) Türkçe Dublaj Brrip Xvid İndir
5
737
  • Derecelendirme: 0/5 - 0 oy
  • 1
  • 2
  • 3
  • 4
  • 5
Konuyu Okuyanlar:1 Ziyaretçi
Şuan Online!
Filmin Yayınlanma Tarihi: 2019 
Şuan Online!
BroserBros Kurucu Admin
*******
Admin

indirme türü


Bulut + Premium

Vizyon Tarihi


20 Haziran 2019

Boyutlar


1,21

diller


[TR]

altyazilar


Yok [Eklenebilir]

Video Format: Avi


Audio Video Interleave (.AVI)

Video Detay


MPEG-4, 1593 Kbps, 1,11GB

imdb puanı


8,0 / 10,0 / 125,000

süre


100 dakika

Ses Kodek: MP3


MPEG-1 Audio Layer III (MP3)

Ses Detay


128 Kbps, 2 Kanal, 92Mb

Editör Puanı


7,5

Genislik Yukseklik


720-302

sürüm


h263 | Brrip Xvid




Oyuncak Hikayesi 4


Film Detayları

Oyuncak Hikayesi 4, kaşıktan yapılma bir oyuncak olan Forky’nin atıldığı macerayı konu ediyor. Bir geri dönüşüm projesi ile yaratılan Forky, oyuncak olduğunu asla kabul etmez. Tek kullanımlık bir kaşıktan yapılma bir oyuncak olsa da o oyuncak olmadığı konusunda ısrarcıdır. Kendisini Bonnie’nin odasına ait hissetmeyen Forky, dünyadaki amacının ne olduğunu düşünmeye başlar. Kendisini oyuncaklardan biri olarak görmediği için Bonnie’nin yanında kalmak zorunda hissetmeyen Forky, dünyadaki amacını kaşık olarak yerine getirmeye karar verir. Ancak onun oyuncak olarak üstesinden gelmesi gereken bambaşka bir görevi vardır.

Oyuncak Hikayesi 4 (Toy Story 4) Filmi Imdb'den 125,000 kişi tarafından oylandı ve 8,0 puan aldı. Bu film için editör puanı 7,5 olarak belirlendi. İyi Seyirler!


Teknik Detaylar


Kod :
General
Complete name                            : /root/Desktop/Oyuncak.Hikayesi.4.2019.BRRip.XviD.TR.Filmbol.avi
Format                                   : AVI
Format/Info                              : Audio Video Interleave
File size                                : 1.21 GiB
Duration                                 : 1h 40mn
Overall bit rate                         : 1 734 Kbps

Video
ID                                       : 0
Format                                   : MPEG-4 Visual
Format profile                           : Simple@L5
Format settings, BVOP                    : No
Format settings, QPel                    : No
Format settings, GMC                     : No warppoints
Format settings, Matrix                  : Default (H.263)
Codec ID                                 : XVID
Codec ID/Hint                            : XviD
Duration                                 : 1h 40mn
Bit rate                                 : 1 593 Kbps
Width                                    : 720 pixels
Height                                   : 302 pixels
Display aspect ratio                     : 2.40:1
Frame rate                               : 23.976 (23976/1000) fps
Color space                              : YUV
Chroma subsampling                       : 4:2:0
Bit depth                                : 8 bits
Scan type                                : Progressive
Compression mode                         : Lossy
Bits/(Pixel*Frame)                       : 0.306
Stream size                              : 1.11 GiB (92%)
Writing library                          : Lavc58.35.100

Audio
ID                                       : 1
Format                                   : MPEG Audio
Format version                           : Version 1
Format profile                           : Layer 3
Mode                                     : Joint stereo
Mode extension                           : MS Stereo
Codec ID                                 : 55
Codec ID/Hint                            : MP3
Duration                                 : 1h 40mn
Bit rate mode                            : Constant
Bit rate                                 : 128 Kbps
Channel(s)                               : 2 channels
Sampling rate                            : 48.0 KHz
Compression mode                         : Lossy
Stream size                              : 91.6 MiB (7%)
Alignment                                : Aligned on interleaves
Interleave, duration                     : 24 ms (0.58 video frame)

Film Detayları


Oyuncak Hikayesi 4

Oyuncak Hikayesi 4

Oyuncak Hikayesi 4


Film Fragmanı


Film Detayları

Brrip İndir


Uptobox ile indir

LetsUpload ile indir

b1j6

Mega ile indir

MediaFire ile indir

Şuan Offine!
Şuan Offine!
efsanem Uzman Üye
**
Uzman Üye

  • Konular0
  • Mesajlar8
  • Rep puanı 0
teşekkürler
Şuan Offine!
Şuan Offine!
haytoki1 Uzman Üye
**
Uzman Üye

  • Konular0
  • Mesajlar18
  • Rep puanı 0
teşekkürler ps2 de izlicem indirip
Şuan Offine!
Şuan Offine!
umitcan Yeni Üye
*
Üye

  • Konular0
  • Mesajlar1
  • Rep puanı 0
####
Şuan Offine!
Şuan Offine!
Snoorn Yeni Üye
*
Üye

  • Konular0
  • Mesajlar1
  • Rep puanı 0
Teşekkür ederim
Şuan Offine!
Şuan Offine!
elnazege Yeni Üye
*
Üye

  • Konular0
  • Mesajlar5
  • Rep puanı 0
Smile Smile teşekkürler


Konu ile Alakalı Benzer Konular
Konular Yazar Yorumlar Okunma Son Yorum
Filmin Yayınlanma Tarihi: 2020
Deathstroke Şövalyeler ve Ejderhalar (Deathstroke Knights & Dragons: The Movie) - 2020 - TR - BRRip XviD BroserBros 0 47 23-11-2020, Saat: 18:30
Son Yorum: BroserBros
Filmin Yayınlanma Tarihi: 2019
15 Dakika Savaş (L'intervention) - 2019 - TR - BRRip XviD BroserBros 0 48 23-11-2020, Saat: 17:42
Son Yorum: BroserBros
Filmin Yayınlanma Tarihi: 2020
Sürprizli Gece (The Sleepover) - 2020 - TR - BRRip XviD BroserBros 0 49 23-11-2020, Saat: 16:18
Son Yorum: BroserBros
Filmin Yayınlanma Tarihi: 2020
Feride (Feride) - 2020 - TR - BRRip XviD BroserBros 0 39 22-11-2020, Saat: 17:58
Son Yorum: BroserBros
Filmin Yayınlanma Tarihi: 2019
Gel Babacığına (Come to Daddy) - 2019 - TR - BRRip XviD BroserBros 0 35 22-11-2020, Saat: 17:43
Son Yorum: BroserBros

Hızlı Menü: