Filmbol Forum Film İndir 720P v Oyuncak Hikayesi 4 (Toy Story 4) Türkçe Dublaj BLURAY m720P İndir
Mega linklerinin şikayet edilmemesi için global erişime kapatıp sadece yorum yapanlara açıyoruz. Bu linkleri gizleme işlemini mecburen yapıyoruz ve yorum yapmanızın siteye değil size faydası vardır. Teşekürler yazmayı çok görüp, Random/Spam mesajlar atarak Mega linklerini açmaya çalışan kullanıcılara önce süresiz ban, devam ederse IP ban atacağız.
Filmbol'da moderatör olmak ister misiniz? Bizimle iletişime geçmek için tıklayın!
Oyuncak Hikayesi 4 (Toy Story 4) Türkçe Dublaj BLURAY m720P İndir
BroserBros
Oyuncak Hikayesi 4 (Toy Story 4) Türkçe Dublaj BLURAY m720P İndir
19
1884
  • Derecelendirme: 0/5 - 0 oy
  • 1
  • 2
  • 3
  • 4
  • 5
Konuyu Okuyanlar:1 Ziyaretçi
Şuan Online!
Filmin Yayınlanma Tarihi: 2019 
WWW
Şuan Online!
BroserBros Kurucu Admin
*******
Admin





Ses Kodek: AC3


Audio Coding 3 (AC3)






Oyuncak Hikayesi 4



Teknik Detaylar


Kod :
General
Complete name                            : Oyuncak.Hikayesi.4.2019.m720p.BLURAY.x264.TR.Filmbol.mkv
Format                                   : Matroska
Format version                           : Version 4 / Version 2
File size                                : 1.04 GiB
Duration                                 : 1h 40mn
Overall bit rate                         : 1 485 Kbps
Movie name                               : Toy Story 4 (2019) - Filmbol.org
Encoded date                             : UTC 2019-11-03 00:38:45
Writing application                      : mkvmerge v35.0.0 ('All The Love In The World') 64-bit
Writing library                          : libebml v1.3.9 + libmatroska v1.5.2

Video
ID                                       : 1
Format                                   : AVC
Format/Info                              : Advanced Video Codec
Format profile                           : [email protected]
Format settings, CABAC                   : Yes
Format settings, ReFrames                : 4 frames
Codec ID                                 : V_MPEG4/ISO/AVC
Duration                                 : 1h 40mn
Bit rate                                 : 1 100 Kbps
Width                                    : 1 280 pixels
Height                                   : 534 pixels
Display aspect ratio                     : 2.40:1
Original display aspect ratio            : 2.40:1
Frame rate mode                          : Constant
Frame rate                               : 23.976 (24000/1001) fps
Color space                              : YUV
Chroma subsampling                       : 4:2:0
Bit depth                                : 8 bits
Scan type                                : Progressive
Bits/(Pixel*Frame)                       : 0.067
Stream size                              : 787 MiB (74%)
Title                                    : 720P - Filmbol.org
Default                                  : Yes
Forced                                   : No

Audio
ID                                       : 2
Format                                   : AC-3
Format/Info                              : Audio Coding 3
Mode extension                           : CM (complete main)
Format settings, Endianness              : Big
Codec ID                                 : A_AC3
Duration                                 : 1h 40mn
Bit rate mode                            : Constant
Bit rate                                 : 384 Kbps
Channel(s)                               : 6 channels
Channel positions                        : Front: L C R, Side: L R, LFE
Sampling rate                            : 48.0 KHz
Frame rate                               : 31.250 fps (1536 spf)
Compression mode                         : Lossy
Stream size                              : 275 MiB (26%)
Title                                    : Türkçe - Filmbol.org
Language                                 : Turkish
Default                                  : Yes
Forced                                   : No

Text
ID                                       : 3
Format                                   : UTF-8
Codec ID                                 : S_TEXT/UTF8
Codec ID/Info                            : UTF-8 Plain Text
Duration                                 : 1h 14mn
Bit rate                                 : 0 bps
Count of elements                        : 4
Stream size                              : 77.0 Bytes (0%)
Title                                    : KISIM
Language                                 : Turkish
Default                                  : Yes
Forced                                   : Yes

Film Detayları


Oyuncak Hikayesi 4

Oyuncak Hikayesi 4

Oyuncak Hikayesi 4


Film Fragmanı


Film Detayları

Mini 720P İndir


Uptobox ile indir

b1j7
Mega linki şuan da gizli. Kullanıma açmak için konuya yorum yapın ve ardından sayfayı yenileyin.

Mega


MediaFire ile indir

Şuan Offine!
Şuan Offine!
DwooXs Yeni Üye
*
Üye

  • Konular0
  • Mesajlar2
  • Rep puanı 0
Adamsın
Şuan Offine!
Şuan Offine!
truk Yeni Üye
*
Üye

  • Konular0
  • Mesajlar1
  • Rep puanı 0
teşekkürler
Şuan Offine!
Şuan Offine!
shadnw Uzman Üye
**
Uzman Üye

  • Konular0
  • Mesajlar9
  • Rep puanı 0
teşekkürler
Şuan Offine!
Şuan Offine!
kimsinsen Uzman Üye
**
Uzman Üye

  • Konular0
  • Mesajlar13
  • Rep puanı 0
harika Big Grin
Şuan Offine!
Şuan Offine!
ozcanveli Yeni Üye
*
Üye

  • Konular0
  • Mesajlar2
  • Rep puanı 0
illaki yorum
Şuan Offine!
Şuan Offine!
shadnw Uzman Üye
**
Uzman Üye

  • Konular0
  • Mesajlar9
  • Rep puanı 0
teşekkürler
Şuan Offine!
Şuan Offine!
serhatpasa12 Yeni Üye
*
Üye

  • Konular0
  • Mesajlar2
  • Rep puanı 0
kralsın bea
Şuan Offine!
Şuan Offine!
pasa Yeni Üye
*
Üye

  • Konular0
  • Mesajlar4
  • Rep puanı 0
Cool Cool Cool Cool Cool Cool
Şuan Offine!
Şuan Offine!
tuncay777 Uzman Üye
**
Uzman Üye

  • Konular0
  • Mesajlar6
  • Rep puanı 0
Adammmm


Konu ile Alakalı Benzer Konular
Konular Yazar Yorumlar Okunma Son Yorum
Filmin Yayınlanma Tarihi: 2019
Bir Köpeğin Fantastik Hikayesi (L'extraordinaire voyage de Marona) - 2019 - TR+ORG - 720P | tt6785292 TheSteeL 0 4 2 saat önce
Son Yorum: TheSteeL
Filmin Yayınlanma Tarihi: 2019
Godzilla 2: Canavarlar Kralı (King of the Monsters) Türkçe Dublaj BLURAY m720P İndir BroserBros 15 1,693 5 saat önce
Son Yorum: OsmanSKMN
Filmin Yayınlanma Tarihi: 2018
Venom: Zehirli Öfke (2018) Türkçe Dublaj Bluray m720P İndir BroserBros 16 2,416 27-02-2021, Saat: 19:14
Son Yorum: Strange
Filmin Yayınlanma Tarihi: 2019
Alev Kapanı 2 (Backdraft 2) Türkçe Dublaj BLURAY 720P indir BroserBros 1 204 27-02-2021, Saat: 13:17
Son Yorum: BroserBros
Filmin Yayınlanma Tarihi: 2019
Büyükbabalar Yuvada (Grand-Daddy Day Care) Türkçe Dublaj BLURAY 720P indir BroserBros 1 233 27-02-2021, Saat: 13:11
Son Yorum: BroserBros

Hızlı Menü: