Filmbol Forum Film İndir BRRip XviD v Oyunbozan (Systemsprenger) - 2019 - TR - BRRip XviD
Moderatör Alımları Başladı! Başvuru yapmak için tıklayın.
Filmbol Premium'da %50'e varan indirim fırsatı!
Oyunbozan (Systemsprenger) - 2019 - TR - BRRip XviD
BroserBros
Oyunbozan (Systemsprenger) - 2019 - TR - BRRip XviD
0
231
  • Derecelendirme: 0/5 - 0 oy
  • 1
  • 2
  • 3
  • 4
  • 5
Konuyu Okuyanlar:1 Ziyaretçi
Şuan Offine!
Filmin Yayınlanma Tarihi: 2019 
Şuan Offine!
BroserBros Kurucu Admin
*******
Admin

Vizyon Tarihi


27 Eylül 2019

imdb puanı


7,9 / 6,000

süre


125 dakika

Editör Puanı


6,9 / 10

Video Format: Avi


Audio Video Interleave (.AVI)

Ses Kodek: MP3


MPEG-1 Audio Layer III (MP3)

sürüm


h263 | BRRip XviD

Boyutlar


1,46 GB



 Oyunbozan



Benni, tuhaf bir kız çocuğudur. Annesi ve Babası olmadığı için evsizler kurumunda kalmaktadır ancak benni zaten aile istememektedir. Evsizler kurumu ona bir çok kere bakıcı ebeveyn bulmayı başarmıştır fakat benni her seferinde kuruma tekrar gelerek sessizliğini korumuştur. Bir gün bakıcısı onu doğaya çıkartır ve eğlenceli vakit geçirmesini sağlar fakat şehre tekrar döndüklerinde benni ailesiz olduğunu hatırlayacak ve yeniden öfkelenmeye başlayacaktır...

Oyunbozan (2019) (Systemsprenger) Filmi Imdb'den 6,000 kişi tarafından oylandı ve 7,9 puan aldı. Bu film için editör puanı 6,9 olarak belirlendi. İyi Seyirler!

Teknik Detaylar

Kod :
General
Complete name                            : /root/Desktop/2/Oyun.Bozan.2019.BRRip.XViD.TR.Filmbol.avi
Format                                  : AVI
Format/Info                              : Audio Video Interleave
File size                                : 1.46 GiB
Duration                                : 2h 0mn
Overall bit rate                        : 1 737 Kbps

Video
ID                                      : 0
Format                                  : MPEG-4 Visual
Format profile                          : Simple@L5
Format settings, BVOP                    : No
Format settings, QPel                    : No
Format settings, GMC                    : No warppoints
Format settings, Matrix                  : Default (H.263)
Codec ID                                : XVID
Codec ID/Hint                            : XviD
Duration                                : 2h 0mn
Bit rate                                : 1 596 Kbps
Width                                    : 720 pixels
Height                                  : 392 pixels
Display aspect ratio                    : 1.85:1
Frame rate                              : 25.000 fps
Color space                              : YUV
Chroma subsampling                      : 4:2:0
Bit depth                                : 8 bits
Scan type                                : Progressive
Compression mode                        : Lossy
Bits/(Pixel*Frame)                      : 0.226
Stream size                              : 1.34 GiB (92%)
Writing library                          : Lavc58.35.100

Audio
ID                                      : 1
Format                                  : MPEG Audio
Format version                          : Version 1
Format profile                          : Layer 3
Mode                                    : Joint stereo
Mode extension                          : MS Stereo
Codec ID                                : 55
Codec ID/Hint                            : MP3
Duration                                : 2h 0mn
Bit rate mode                            : Constant
Bit rate                                : 128 Kbps
Channel(s)                              : 2 channels
Sampling rate                            : 48.0 KHz
Compression mode                        : Lossy
Stream size                              : 110 MiB (7%)
Alignment                                : Aligned on interleaves
Interleave, duration                    : 24 ms (0.60 video frame)

Film Detayları


 Oyunbozan

 Oyunbozan

 Oyunbozan


Film Fragmanı


Film Detayları


Uptobox ile indir

1Fichier ile indir

1Fichier'den İndiremiyor musun? Tıklayın!


Mega ile indir

Bunun için üzgünüz ancak, bu linke sadece premium üyeler erişebilir.

Filmbol Cloud



Konu ile Alakalı Benzer Konular
Konular Yazar Yorumlar Okunma Son Yorum
Filmin Yayınlanma Tarihi: 2014
Yarının Sınırında (Edge of Tomorrow) - 2014 - TR - BRRip XviD BroserBros 1 138 20-10-2020, Saat: 15:13
Son Yorum: sectechno
Filmin Yayınlanma Tarihi: 2020
Holly Slept Over (Holly Slept Over) - 2020 - TR - BRRip XviD BroserBros 0 392 08-10-2020, Saat: 20:08
Son Yorum: BroserBros
Filmin Yayınlanma Tarihi: 2019
Rahat Kız (An Easy Girl) - 2019 - TR - BRRip XviD BroserBros 0 405 08-10-2020, Saat: 19:34
Son Yorum: BroserBros
Filmin Yayınlanma Tarihi: 2020
Mavi Korku 3 (Deep Blue Sea 3) - 2020 - TR - BRRip XviD BroserBros 0 495 03-10-2020, Saat: 21:11
Son Yorum: BroserBros
Filmin Yayınlanma Tarihi: 2018
Fast Color: Gücünü Serbest Bırak (Fast Color) - 2018 - TR - BRRip XviD BroserBros 0 132 03-10-2020, Saat: 16:46
Son Yorum: BroserBros

Hızlı Menü: