Hoşgeldin, Ziyaretçi: Giriş Yap Üye Ol


stats
Adblock'u kapattıysanız tıklayın.
Hoşgeldiniz!
Filmbol'u tercih ettiğiniz için teşekkürler, ancak ablock kullanarak devam edemezsiniz.
Merak etmeyin. Heryerden ardı ardına çıkan reklamlar görmeyeceksiniz :)

Sadece site içi 1 reklam göreceksin ve bu site gezintini etkilemeyecek.
Konuyu Oyla:
  • Derecelendirme: 0/5 - 0 oy
  • 1
  • 2
  • 3
  • 4
  • 5
Öykü (The Tale) Türkçe Dublaj Brrip-Xvid İndir
#1
Filmin Yayınlanma Tarihi: 2018 

indirme türü


Bulut + Premium

vizyon tarihi


09 Haziran 2018

Boyutlar


1,27

diller


[TR]

altyazilar


Yok [Eklenebilir]

Video Format: Avi


Audio Video Interleave (.AVI)

Video Detay


MPEG-4, 1492 Kbps, 1,17GB

imdb puanı


7,3 / 10,0 / 6,000

süre


114 dakika

Ses Kodek: MP3


MPEG-1 Audio Layer III (MP3)

Ses Detay


128 Kbps, 2 Kanal, 105 Mb

rarsifresi


filmbol.org

Editör Puanı


6,1

Genislik Yukseklik


720x400

sürüm


h263 | Webrip-Xvid



Film Detayları

Bir belgesel yönetmeni olan Jennifer, annesinin bekaretini kaybetmesi ile ilgili bir kısa hikaye yazmıştır. Hikayeye göre annesinin binicilik eğitmeni ve koşu hocası, annesinin bekaretini kaybetmesi için ona komplo kurmuştur. 13 yaşında yazmış olduğu hikayenin ortaya çıkışı ile birlikte Jennifer'ın annesi oldukça etkilenir ve sinirlenir. Annesinin tepkisinin ardından Jennifer, geçmişini ve yaşadığı ilk cinsel ilişkisini sorgulamaya başlar. Hayatta kalabilmek için kendimize anlattığımızın hikayelerin üzerine kurulu bir hayat gerçekte ne kadar sağlam olabilir?...

Öykü (The Tale) Filmi İmdb'den 6.000 kişi tarafından oylandı ve 7,3 puan aldı. Bu film için editör puanı 7,0 olarak belirlendi. İyi Seyirler!


Teknik Detaylar


Kod:
General
Complete name                            : The.Tale.2018.WEBRip.XviD.TR.Filmbol.avi
Format                                   : AVI
Format/Info                              : Audio Video Interleave
File size                                : 1.29 GiB
Duration                                 : 1 h 54 min
Overall bit rate                         : 1 603 kb/s

Video
ID                                       : 0
Format                                   : MPEG-4 Visual
Format profile                           : Simple@L5
Format settings, BVOP                    : No
Format settings, QPel                    : No
Format settings, GMC                     : No warppoints
Format settings, Matrix                  : Default (H.263)
Codec ID                                 : XVID
Codec ID/Hint                            : XviD
Duration                                 : 1 h 54 min
Bit rate                                 : 1 462 kb/s
Width                                    : 720 pixels
Height                                   : 400 pixels
Display aspect ratio                     : 16:9
Frame rate                               : 23.976 (24000/1001) FPS
Color space                              : YUV
Chroma subsampling                       : 4:2:0
Bit depth                                : 8 bits
Scan type                                : Progressive
Compression mode                         : Lossy
Bits/(Pixel*Frame)                       : 0.212
Stream size                              : 1.17 GiB (91%)
Writing library                          : Lavc58.1.100

Audio
ID                                       : 1
Format                                   : MPEG Audio
Format version                           : Version 1
Format profile                           : Layer 3
Format settings                          : Joint stereo / MS Stereo
Codec ID                                 : 55
Codec ID/Hint                            : MP3
Duration                                 : 1 h 54 min
Bit rate mode                            : Constant
Bit rate                                 : 128 kb/s
Channel(s)                               : 2 channels
Sampling rate                            : 48.0 kHz
Frame rate                               : 41.667 FPS (1152 SPF)
Compression mode                         : Lossy
Stream size                              : 105 MiB (8%)
Alignment                                : Aligned on interleaves
Interleave, duration                     : 24  ms (0.58 video frame)



Film Detayları


Oyku

Oyku

Oyku

Oyku

Oyku


Film Fragmanı


Film Detayları

Brrip İndir


Turbobit İle İndir

Mega ile indir

Uptobox ile indir

Cloud Ru ile indir

 
Cevapla
  


Konu ile Alakalı Benzer Konular
Konular Yazar Yorumlar Okunma Son Yorum
Filmin Yayınlanma Tarihi: 2018 Kaçış Planı 2: Hades (Escape Plan 2) Türkçe Dublaj Brrip Xvid İndir BroserBros 0 70 07-09-2019, Saat: 20:52
Son Yorum: BroserBros
Filmin Yayınlanma Tarihi: 2018 El Royale'de Zor Zamanlar (Bad Times at the El Royale) Türkçe Dublaj Brrip-Xvid İndir DRMOV 0 280 12-02-2019, Saat: 11:17
Son Yorum: DRMOV
Filmin Yayınlanma Tarihi: 2015 Geçmişten Gelen (The Gift) Türkçe Dublaj Brrip-Xvid İndir BroserBros 0 925 27-02-2017, Saat: 21:50
Son Yorum: BroserBros
Filmin Yayınlanma Tarihi: 2016 Yüce Sezar (Hail Ceaser) Türkçe Dublaj Brrip-Xvid İndir BroserBros 0 742 23-02-2017, Saat: 21:04
Son Yorum: BroserBros
Filmin Yayınlanma Tarihi: 2016 Manhattan Night (Manhattan Nocturne) Türkçe Dublaj Brrip-Xvid İndir BroserBros 0 783 30-01-2017, Saat: 15:23
Son Yorum: BroserBros

Hızlı Menü:


Şu anda bu konuyu okuyanlar: 1 Ziyaretçi