Hoşgeldin, Ziyaretçi: Giriş Yap Üye Ol


stats
Adblock'u kapattıysanız tıklayın.
Hoşgeldiniz!
Filmbol'u tercih ettiğiniz için teşekkürler, ancak ablock kullanarak devam edemezsiniz.
Merak etmeyin. Heryerden ardı ardına çıkan reklamlar görmeyeceksiniz :)

Sadece site içi 1 reklam göreceksin ve bu site gezintini etkilemeyecek.
Konuyu Oyla:
  • Derecelendirme: 0/5 - 0 oy
  • 1
  • 2
  • 3
  • 4
  • 5
Overlord Operasyonu (2018) Türkçe Dublaj Brrip Xvid İndir
#1
Filmin Yayınlanma Tarihi: 2018 

indirme türü


Bulut + Premium

vizyon tarihi


09 Kasım 2018

Boyutlar


1,26

diller


[TR]

altyazilar


Yok [Eklenebilir]

Video Format: Avi


Audio Video Interleave (.AVI)

Video Detay


MPEG-4, 1520 Kbps, 1,17GB

imdb puanı


6,7 / 10,0 / 61,000

süre


110 dakika

Ses Kodek: MP3


MPEG-1 Audio Layer III (MP3)

Ses Detay


128 Kbps, 2 Kanal, 101 Mb

Editör Puanı


6,9

Genislik Yukseklik


720-302

sürüm


h263 | Brrip Xvid





Overlord Operasyonu


Film Detayları

Overlord Operasyonu'nun hikayesinde, 2. Dünya Savaşı'nda, müttefik güçlerin Normandiya'ya asker çıkarması yapacağı günün arifesinde, bir grup Amerikalı paraşütçü, düşman hattının arkasında bırakılır. Askerlerin buraya bırakılmasının amacı saldırının başarısı için önemli bir görevi gerçekleştirmektir. Fakat askerler hedeflerine yaklaşırken beklenmedik bir şeyle karşılaşırlar. Nazi işgali altındaki köyde, sadece bir askeri operasyondan fazlasının olduğunu fark ederler.
 
Overlord Operasyonu Filmi Imdb'den 61,000 kişi tarafından oylandı ve 6,7 puan aldı. Bu film için editör puanı 6,9 olarak belirlendi. İyi Seyirler!


Teknik Detaylar




Kod:
General
Complete name                            : Overlord.2018.BRRip.XviD.TR.Filmbol.avi
Format                                   : AVI
Format/Info                              : Audio Video Interleave
File size                                : 1.27 GiB
Duration                                 : 1h 49mn
Overall bit rate                         : 1 661 Kbps

Video
ID                                       : 0
Format                                   : MPEG-4 Visual
Format profile                           : Simple@L5
Format settings, BVOP                    : No
Format settings, QPel                    : No
Format settings, GMC                     : No warppoints
Format settings, Matrix                  : Default (H.263)
Codec ID                                 : XVID
Codec ID/Hint                            : XviD
Duration                                 : 1h 49mn
Bit rate                                 : 1 520 Kbps
Width                                    : 720 pixels
Height                                   : 302 pixels
Display aspect ratio                     : 2.40:1
Frame rate                               : 23.976 fps
Color space                              : YUV
Chroma subsampling                       : 4:2:0
Bit depth                                : 8 bits
Scan type                                : Progressive
Compression mode                         : Lossy
Bits/(Pixel*Frame)                       : 0.292
Stream size                              : 1.17 GiB (92%)
Writing library                          : Lavc58.35.100

Audio
ID                                       : 1
Format                                   : MPEG Audio
Format version                           : Version 1
Format profile                           : Layer 3
Mode                                     : Joint stereo
Mode extension                           : MS Stereo
Codec ID                                 : 55
Codec ID/Hint                            : MP3
Duration                                 : 1h 49mn
Bit rate mode                            : Constant
Bit rate                                 : 128 Kbps
Channel(s)                               : 2 channels
Sampling rate                            : 48.0 KHz
Compression mode                         : Lossy
Stream size                              : 101 MiB (8%)
Alignment                                : Aligned on interleaves
Interleave, duration                     : 24 ms (0.58 video frame)
Writing library                          : LAME3.99.5

Film Detayları


Overlord

Overlord

Overlord




Film Fragmanı


Film Detayları

Brrip İndir


Uptobox ile indir

MixDrop ile indir

Tusfiles ile indir

LetsUpload ile indir

Filmbol'da aşağıdaki linkler sadece üyelere sunulur. Ayrıca bu linklerde link kısaltma servisleri kullanılmaz, linke tek tık ile reklamsız erişirsiniz. Konu'ya yorum yapın ve sayfayı yenileyin. Reklamsız linkler (en az 3 en fazla 5 link) açılmış olacaktır. Not: Filmbol'a üye olmak tamamen ücretsizdir, en az 3 link kuralı 01.07.2019 tarihinden sonraki paylaşımlar için geçerlidir. Ancak çoğu film için en az bir premium link her zaman bulunur.

Mega

Dosyaco

Dosyaupload

Mediafire

Google Drive
 
Cevapla
  


Konu ile Alakalı Benzer Konular
Konular Yazar Yorumlar Okunma Son Yorum
Filmin Yayınlanma Tarihi: 2017 John Wick 2 (Chapter 2) Türkçe Dublaj Brrip Xvid İndir BroserBros 1 69 , Saat: 00:11
Son Yorum: ufukus
Filmin Yayınlanma Tarihi: 2018 Deadpool 2 Türkçe Dublaj Brrip-Xvid İndir BroserBros 7 1,832 14-09-2019, Saat: 23:00
Son Yorum: edizshady
Filmin Yayınlanma Tarihi: 2018 Entebbe'de 7 Gün (Entebbe) Türkçe Dublaj Brrip Xvid İndir BroserBros 1 78 04-09-2019, Saat: 08:55
Son Yorum: mert06
Filmin Yayınlanma Tarihi: 2018 Şiddet Eylemleri (Acts of Violence) Türkçe Dublaj Brrip Xvid İndir BroserBros 0 29 02-09-2019, Saat: 22:18
Son Yorum: BroserBros
Filmin Yayınlanma Tarihi: 2018 Adaletsiz - Dragged Across Concrete (2018) - Türkçe Dublaj BRRip XviD İndir NtDTr 0 155 08-08-2019, Saat: 18:52
Son Yorum: NtDTr

Hızlı Menü:


Şu anda bu konuyu okuyanlar: 1 Ziyaretçi