Filmbol Forum Film İndir BRRip XviD v Our House (2018) Türkçe Dublaj Brrip Xvid İndir
Filmbol'da moderatör olmak ister misiniz? Bizimle iletişime geçmek için tıklayın!
Our House (2018) Türkçe Dublaj Brrip Xvid İndir
BroserBros
Our House (2018) Türkçe Dublaj Brrip Xvid İndir
3
329
  • Derecelendirme: 0/5 - 0 oy
  • 1
  • 2
  • 3
  • 4
  • 5
Konuyu Okuyanlar:1 Ziyaretçi
Şuan Online!
Filmin Yayınlanma Tarihi: 2018 
Şuan Online!
BroserBros Kurucu Admin
*******
Admin

Vizyon Tarihi


27 Haziran 2018

imdb puanı


5,3 / 5,000

süre


93 dakika

Editör Puanı


5,2

Video Format: Avi


Audio Video Interleave (.AVI)

Ses Kodek: MP3


MPEG-1 Audio Layer III (MP3)

sürüm


h263 | Brrip Xvid

Boyutlar


0,72



Our House



Film Detayları

Our House, yaptığı icat sayesinde evlerine musallat olan ruhlardan kurtulmaya çalışan Ethan ve kardeşlerinin hikayesini anlatıyor. Ölenleri geri getirebilecek bir makine harika bir fikir gibi gözüküyor; ta ki yanlış ruhlar ortaya çıkana kadar... Genç bir deha olan Ethan ebeveynlerini bir trafik kazasında kaybetmiştir. Ethan, yaşadığı kaybın ardından kardeşlerine bakabilmek için eğitimini ve kız arkadaşını ardında bırakır. Günlerini iyi çocuğu büyütme sorumluluğu ile geçiren Ethan bir yandan da garajda dünyayı değiştirebileceğini düşündüğü icadı üzerinde çalışır. Eğer her şey yolunda giderse Ethan icadı sayesinde ailesi ile tekrar bir araya gelebilecektir. Son düzenlemeleri yaptıktan sonra kardeşleri ile birlikte ebeveynleri ile iletişim kurmaya çalışırlar. Tam da bu sırada beklenmedik korkunç bir durumla karşı karşıya kalırlar. Ethan’ın icat ettiği makine yanlış ruhların ortaya çıkıp evlerine musallat olmasına neden olur.

Our House (2018) Filmi Imdb'den 5,000 kişi tarafından oylandı ve 5,3 puan aldı. Bu film için editör puanı 5,0 olarak belirlendi. İyi Seyirler!


Teknik Detaylar


Kod :
General
Complete name                            : /root/Desktop/2/Our.House.2018.BRRip.XviD.TR.Filmbol.avi
Format                                   : AVI
Format/Info                              : Audio Video Interleave
File size                                : 727 MiB
Duration                                 : 1h 30mn
Overall bit rate                         : 1 127 Kbps

Video
ID                                       : 0
Format                                   : MPEG-4 Visual
Format profile                           : Simple@L5
Format settings, BVOP                    : No
Format settings, QPel                    : No
Format settings, GMC                     : No warppoints
Format settings, Matrix                  : Default (H.263)
Codec ID                                 : XVID
Codec ID/Hint                            : XviD
Duration                                 : 1h 30mn
Bit rate                                 : 986 Kbps
Width                                    : 720 pixels
Height                                   : 400 pixels
Display aspect ratio                     : 16:9
Frame rate                               : 23.976 fps
Color space                              : YUV
Chroma subsampling                       : 4:2:0
Bit depth                                : 8 bits
Scan type                                : Progressive
Compression mode                         : Lossy
Bits/(Pixel*Frame)                       : 0.143
Stream size                              : 636 MiB (87%)
Writing library                          : Lavc58.18.100

Audio
ID                                       : 1
Format                                   : MPEG Audio
Format version                           : Version 1
Format profile                           : Layer 3
Mode                                     : Joint stereo
Mode extension                           : MS Stereo
Codec ID                                 : 55
Codec ID/Hint                            : MP3
Duration                                 : 1h 30mn
Bit rate mode                            : Constant
Bit rate                                 : 128 Kbps
Channel(s)                               : 2 channels
Sampling rate                            : 48.0 KHz
Compression mode                         : Lossy
Stream size                              : 82.6 MiB (11%)
Alignment                                : Aligned on interleaves
Interleave, duration                     : 24 ms (0.58 video frame)

Film Detayları


Our House

Our House

Our House


Film Fragmanı


Film Detayları

Brrip İndir



Uptobox ile indir

1Fichier ile indir

1Fichier'den İndiremiyor musun? Tıklayın!


Mega ile indir

MediaFire ile indir

Şuan Offine!
Şuan Offine!
kartal Uzman Üye
**
Uzman Üye

  • Konular0
  • Mesajlar21
  • Rep puanı 0
Teşekkürler
Şuan Offine!
Şuan Offine!
doncastello Yeni Üye
*
Üye

  • Konular0
  • Mesajlar4
  • Rep puanı 0
Tesekkurler
Şuan Offine!
Şuan Offine!
cemsav97 Süper Üye
***
Super Üye

  • Konular0
  • Mesajlar36
  • Rep puanı 0
teşekkürler


Konu ile Alakalı Benzer Konular
Konular Yazar Yorumlar Okunma Son Yorum
Filmin Yayınlanma Tarihi: 2020
Deathstroke Şövalyeler ve Ejderhalar (Deathstroke Knights & Dragons: The Movie) - 2020 - TR - BRRip XviD BroserBros 0 18 , Saat: 18:30
Son Yorum: BroserBros
Filmin Yayınlanma Tarihi: 2019
15 Dakika Savaş (L'intervention) - 2019 - TR - BRRip XviD BroserBros 0 19 , Saat: 17:42
Son Yorum: BroserBros
Filmin Yayınlanma Tarihi: 2020
Sürprizli Gece (The Sleepover) - 2020 - TR - BRRip XviD BroserBros 0 21 , Saat: 16:18
Son Yorum: BroserBros
Filmin Yayınlanma Tarihi: 2020
Feride (Feride) - 2020 - TR - BRRip XviD BroserBros 0 36 22-11-2020, Saat: 17:58
Son Yorum: BroserBros
Filmin Yayınlanma Tarihi: 2019
Gel Babacığına (Come to Daddy) - 2019 - TR - BRRip XviD BroserBros 0 32 22-11-2020, Saat: 17:43
Son Yorum: BroserBros

Hızlı Menü: