Filmbol Forum Film İndir BRRip XviD v Örümcek-Adam (Spider-Man) Türkçe Dublaj BRRip XviD İndir
Filmbol'da moderatör olmak ister misiniz? Bizimle iletişime geçmek için tıklayın!
Örümcek-Adam (Spider-Man) Türkçe Dublaj BRRip XviD İndir
BroserBros
Örümcek-Adam (Spider-Man) Türkçe Dublaj BRRip XviD İndir
0
396
  • Derecelendirme: 0/5 - 0 oy
  • 1
  • 2
  • 3
  • 4
  • 5
Konuyu Okuyanlar:1 Ziyaretçi
Şuan Online!
Filmin Yayınlanma Tarihi: 2002 
Şuan Online!
BroserBros Kurucu Admin
*******
Admin

Vizyon Tarihi


14 Haziran 2002

imdb puanı


7,3 / 660,000

süre


121 dakika

Editör Puanı


8,2 / 10

Video Format: Avi


Audio Video Interleave (.AVI)

Ses Kodek: MP3


MPEG-1 Audio Layer III (MP3)

sürüm


h263 | BRRip Xvid

Boyutlar


1,17



Spider Man



Peter Parker, çifte hayat yaşayıp Örümcek Adam olarak suçlularla savaşmaktan yorgun düşmüş mutsuz bir adamdır. Hayatı inişe geçmiştir. Sevdiği kadın bir başkası ile nişanlanmış, dereceleri yokuş aşağı kayıp gitmekte, hiçbir işi başaramamaktadır. Dahası Daily Bugle gazetesi, Örümcek Adam’ın bir suçlu olduğu iddiası ile kendisine acımasızca saldırmaktadır. Kırılma noktasına ulaşan Peter, bu kimliğinden vazgeçmeye karar verir. Ancak başarılı olmayan bir dönüşüm deneyimi ile eksantrik ve obsesif bilim adamı Doktor Otto Octavius, dört uzun dokunaçlı bir cani olarak Doktor Ahtapot’a dönüşür. Peter, belki de Örümcek Adam’ın geri dönüş zamanı olduğunu düşünmeye başlar.

Örümcek-Adam (2002) (Spider-Man) Filmi Imdb'den 660,000 kişi tarafından oylandı ve 7,3 puan aldı. Bu film için editör puanı 8,2 olarak belirlendi. İyi Seyirler!

Teknik Detaylar

Kod :
General Complete name                            : /root/Desktop/8/Örümcek.Adam.2002.BRRip.XviD.TR.Filmbol.avi Format                                   : AVI Format/Info                              : Audio Video Interleave File size                                : 1.17 GiB Duration                                 : 2h 1mn Overall bit rate                         : 1 388 Kbps  Video ID                                       : 0 Format                                   : MPEG-4 Visual Format profile                           : Advanced Simple@L4 Format settings, BVOP                    : 2 Format settings, QPel                    : No Format settings, GMC                     : No warppoints Format settings, Matrix                  : Default (H.263) Codec ID                                 : DIVX Codec ID/Info                            : Project Mayo Codec ID/Hint                            : DivX 4 Duration                                 : 2h 1mn Bit rate                                 : 1 247 Kbps Width                                    : 720 pixels Height                                   : 390 pixels Display aspect ratio                     : 1.85:1 Frame rate                               : 23.976 (24000/1001) fps Color space                              : YUV Chroma subsampling                       : 4:2:0 Bit depth                                : 8 bits Scan type                                : Progressive Compression mode                         : Lossy Bits/(Pixel*Frame)                       : 0.185 Stream size                              : 1.06 GiB (90%) Writing library                          : XviD 67  Audio ID                                       : 1 Format                                   : MPEG Audio Format version                           : Version 1 Format profile                           : Layer 3 Codec ID                                 : 55 Codec ID/Hint                            : MP3 Duration                                 : 2h 1mn Bit rate mode                            : Constant Bit rate                                 : 128 Kbps Channel(s)                               : 2 channels Sampling rate                            : 48.0 KHz Compression mode                         : Lossy Stream size                              : 111 MiB (9%) Alignment                                : Aligned on interleaves Interleave, duration                     : 24 ms (0.58 video frame) Writing library                          : LAME3.99.5UUUUUUUUU

Film Detayları


Spider Man

Spider Man

Spider Man


Film Fragmanı


Film Detayları

Brrip İndir

Uptobox ile indir

1Fichier ile indir

1Fichier'den İndiremiyor musun? Tıklayın!


Mega ile indir

MediaFire ile indir



Konu ile Alakalı Benzer Konular
Konular Yazar Yorumlar Okunma Son Yorum
Filmin Yayınlanma Tarihi: 2018
Döndüm Ben (Yerli) - 2018 - TR - BRRip XviD BroserBros 0 5 2 saat önce
Son Yorum: BroserBros
Filmin Yayınlanma Tarihi: 2018
Bana Bir Soygun Yaz 2 (Yerli) - 2018 - TR - BRRip XviD BroserBros 0 5 2 saat önce
Son Yorum: BroserBros
Filmin Yayınlanma Tarihi: 2007
Amerikan Pastası 6: Beta Evi (American Pie: Beta House) - 2007 - TR - BRRip XviD BroserBros 2 246 6 saat önce
Son Yorum: tayyib5731
Filmin Yayınlanma Tarihi: 2005
Amerikan Pastası 4 (Bando Takımı) (American Pie Band Camp) Türkçe Dublaj BRRip XviD BroserBros 2 334 6 saat önce
Son Yorum: tayyib5731
Filmin Yayınlanma Tarihi: 2019
Hain (The Traitor / Il traditore) - 2019 - TR - BRRip XviD BroserBros 0 39 , Saat: 16:04
Son Yorum: BroserBros

Hızlı Menü: