Hoşgeldin, Ziyaretçi: Giriş Yap Üye Ol


Konuyu Oyla:
  • Derecelendirme: 0/5 - 0 oy
  • 1
  • 2
  • 3
  • 4
  • 5
Title: Örümcek-Adam (Spider-Man) Türkçe Dublaj BRRip XviD İndir
Gösterim Stili
#1
Filmin Yayınlanma Tarihi: 2002 

vizyon tarihi


14 Haziran 2002

imdb puanı


7,3 / 660,000

süre


121 dakika

Editör Puanı


8,2 / 10

Video Format: Avi


Audio Video Interleave (.AVI)

Ses Kodek: MP3


MPEG-1 Audio Layer III (MP3)

sürüm


h263 | BRRip Xvid

Boyutlar


1,17



Spider Man



Peter Parker, çifte hayat yaşayıp Örümcek Adam olarak suçlularla savaşmaktan yorgun düşmüş mutsuz bir adamdır. Hayatı inişe geçmiştir. Sevdiği kadın bir başkası ile nişanlanmış, dereceleri yokuş aşağı kayıp gitmekte, hiçbir işi başaramamaktadır. Dahası Daily Bugle gazetesi, Örümcek Adam’ın bir suçlu olduğu iddiası ile kendisine acımasızca saldırmaktadır. Kırılma noktasına ulaşan Peter, bu kimliğinden vazgeçmeye karar verir. Ancak başarılı olmayan bir dönüşüm deneyimi ile eksantrik ve obsesif bilim adamı Doktor Otto Octavius, dört uzun dokunaçlı bir cani olarak Doktor Ahtapot’a dönüşür. Peter, belki de Örümcek Adam’ın geri dönüş zamanı olduğunu düşünmeye başlar.

Örümcek-Adam (2002) (Spider-Man) Filmi Imdb'den 660,000 kişi tarafından oylandı ve 7,3 puan aldı. Bu film için editör puanı 8,2 olarak belirlendi. İyi Seyirler!

Teknik Detaylar

Kod:
General Complete name                            : /root/Desktop/8/Örümcek.Adam.2002.BRRip.XviD.TR.Filmbol.avi Format                                   : AVI Format/Info                              : Audio Video Interleave File size                                : 1.17 GiB Duration                                 : 2h 1mn Overall bit rate                         : 1 388 Kbps  Video ID                                       : 0 Format                                   : MPEG-4 Visual Format profile                           : Advanced Simple@L4 Format settings, BVOP                    : 2 Format settings, QPel                    : No Format settings, GMC                     : No warppoints Format settings, Matrix                  : Default (H.263) Codec ID                                 : DIVX Codec ID/Info                            : Project Mayo Codec ID/Hint                            : DivX 4 Duration                                 : 2h 1mn Bit rate                                 : 1 247 Kbps Width                                    : 720 pixels Height                                   : 390 pixels Display aspect ratio                     : 1.85:1 Frame rate                               : 23.976 (24000/1001) fps Color space                              : YUV Chroma subsampling                       : 4:2:0 Bit depth                                : 8 bits Scan type                                : Progressive Compression mode                         : Lossy Bits/(Pixel*Frame)                       : 0.185 Stream size                              : 1.06 GiB (90%) Writing library                          : XviD 67  Audio ID                                       : 1 Format                                   : MPEG Audio Format version                           : Version 1 Format profile                           : Layer 3 Codec ID                                 : 55 Codec ID/Hint                            : MP3 Duration                                 : 2h 1mn Bit rate mode                            : Constant Bit rate                                 : 128 Kbps Channel(s)                               : 2 channels Sampling rate                            : 48.0 KHz Compression mode                         : Lossy Stream size                              : 111 MiB (9%) Alignment                                : Aligned on interleaves Interleave, duration                     : 24 ms (0.58 video frame) Writing library                          : LAME3.99.5UUUUUUUUU

Film Detayları


Spider Man

Spider Man

Spider Man


Film Fragmanı


Film Detayları


Brrip İndir

Uptobox ile indir

1Fichier ile indir

Mega linki şuan da gizli. Kullanıma açmak için konuya yorum yapın ve ardından sayfayı yenileyin. Ayrıca bu linki açtığınızda reklamsız olarak erişebileceğinizi unutmayın.

Mega


Mediafire linki şuan da gizli. Kullanıma açmak için konuya yorum yapın ve ardından sayfayı yenileyin. Ayrıca bu linki açtığınızda reklamsız olarak erişebileceğinizi unutmayın.

Mediafire

 
Cevapla
  


Konu ile Alakalı Benzer Konular
Konular Yazar Yorumlar Okunma Son Yorum
Filmin Yayınlanma Tarihi: 2007 Örümcek Adam 3 (Spider-Man 3) Türkçe Dublaj BRRip XviD İndir BroserBros 0 43 23-01-2020, Saat: 19:09
Son Yorum: BroserBros
Filmin Yayınlanma Tarihi: 2004 Örümcek Adam 2 (Spider-Man 2) Türkçe Dublaj BRRip XviD İndir BroserBros 0 44 23-01-2020, Saat: 18:59
Son Yorum: BroserBros
Filmin Yayınlanma Tarihi: 2016 Avcı: Kış Askeri (The Huntsman: Winter's War) Türkçe Dublaj Brrip-Xvid İndir BroserBros 1 1,083 16-01-2020, Saat: 22:14
Son Yorum: hayri40
Filmin Yayınlanma Tarihi: 2016 Ninja Kaplumbağalar: Gölgelerin İçinden Türkçe Dublaj Brrip-Xvid İndir BroserBros 2 1,296 16-01-2020, Saat: 20:58
Son Yorum: hayri40
Filmin Yayınlanma Tarihi: 2019 Pokemon Dedektif Pikachu (Pokemon Detective Pikachu) Türkçe Dublaj Brrip Xvid İndir BroserBros 3 335 16-01-2020, Saat: 20:33
Son Yorum: hayri40

Hızlı Menü:


Browsing: 1 Ziyaretçi