Filmbol Forum Film İndir 720P v Örümcek-Adam (Spider-Man) Türkçe Dublaj BLURAY 720P İndir
Moderatör Alımları Başladı! Başvuru yapmak için tıklayın.
Filmbol Premium'da %50'e varan indirim fırsatı!
Örümcek-Adam (Spider-Man) Türkçe Dublaj BLURAY 720P İndir
BroserBros
Örümcek-Adam (Spider-Man) Türkçe Dublaj BLURAY 720P İndir
0
321
  • Derecelendirme: 0/5 - 0 oy
  • 1
  • 2
  • 3
  • 4
  • 5
Konuyu Okuyanlar:1 Ziyaretçi
Şuan Online!
Filmin Yayınlanma Tarihi: 2002 
Şuan Online!
BroserBros Kurucu Admin
*******
Admin

Vizyon Tarihi


14 Haziran 2002

imdb puanı


7,3 / 660,000

süre


121 dakika

Editör Puanı


8,2 / 10

Video Format: Mkv


Matroska (.MKV)

Ses Kodek: AC3


Audio Coding 3 (AC3)

sürüm


x264 | 720P | BLURAY

Boyutlar


1,00



Spider Man



Peter Parker, çifte hayat yaşayıp Örümcek Adam olarak suçlularla savaşmaktan yorgun düşmüş mutsuz bir adamdır. Hayatı inişe geçmiştir. Sevdiği kadın bir başkası ile nişanlanmış, dereceleri yokuş aşağı kayıp gitmekte, hiçbir işi başaramamaktadır. Dahası Daily Bugle gazetesi, Örümcek Adam’ın bir suçlu olduğu iddiası ile kendisine acımasızca saldırmaktadır. Kırılma noktasına ulaşan Peter, bu kimliğinden vazgeçmeye karar verir. Ancak başarılı olmayan bir dönüşüm deneyimi ile eksantrik ve obsesif bilim adamı Doktor Otto Octavius, dört uzun dokunaçlı bir cani olarak Doktor Ahtapot’a dönüşür. Peter, belki de Örümcek Adam’ın geri dönüş zamanı olduğunu düşünmeye başlar.

Örümcek-Adam (2002) (Spider-Man) Filmi Imdb'den 660,000 kişi tarafından oylandı ve 7,3 puan aldı. Bu film için editör puanı 8,2 olarak belirlendi. İyi Seyirler!

Teknik Detaylar

Kod :
General Unique ID                                : 115091135952422036639322705446199099627 (0x5695BF1B0BA43F183E5EEEA2C6E400EB) Complete name                            : /root/Desktop/8/Örümcek.Adam.2002.720p.BluRay.x264.TR.Filmbol.mkv Format                                   : Matroska Format version                           : Version 4 / Version 2 File size                                : 1 002 MiB Duration                                 : 2h 1mn Overall bit rate                         : 1 156 Kbps Movie name                               : Spider Man (2002) - Filmbol.org Encoded date                             : UTC 2020-01-08 18:04:53 Writing application                      : mkvmerge v35.0.0 ('All The Love In The World') 64-bit Writing library                          : libebml v1.3.9 + libmatroska v1.5.2  Video ID                                       : 1 Format                                   : AVC Format/Info                              : Advanced Video Codec Format profile                           : High@L3.1 Format settings, CABAC                   : Yes Format settings, ReFrames                : 5 frames Codec ID                                 : V_MPEG4/ISO/AVC Duration                                 : 2h 1mn Bit rate                                 : 772 Kbps Width                                    : 1 280 pixels Height                                   : 688 pixels Display aspect ratio                     : 1.85:1 Frame rate mode                          : Constant Frame rate                               : 23.976 (24000/1001) fps Color space                              : YUV Chroma subsampling                       : 4:2:0 Bit depth                                : 8 bits Scan type                                : Progressive Bits/(Pixel*Frame)                       : 0.037 Stream size                              : 668 MiB (67%) Title                                    : 720P - Filmbol.org Writing library                          : x264 core 114 r1924 08d04a4 Encoding settings                        : cabac=1 / ref=5 / deblock=1:-2:-1 / analyse=0x3:0x113 / me=umh / subme=5 / psy=1 / psy_rd=0.00:0.00 / mixed_ref=1 / me_range=16 / chroma_me=1 / trellis=1 / 8x8dct=1 / cqm=0 / deadzone=21,11 / fast_pskip=1 / chroma_qp_offset=0 / threads=3 / sliced_threads=0 / nr=0 / decimate=1 / interlaced=0 / constrained_intra=0 / bframes=16 / b_pyramid=2 / b_adapt=1 / b_bias=0 / direct=3 / weightb=1 / open_gop=0 / weightp=2 / keyint=250 / keyint_min=23 / scenecut=40 / intra_refresh=0 / rc=2pass / mbtree=0 / bitrate=772 / ratetol=1.0 / qcomp=0.60 / qpmin=10 / qpmax=51 / qpstep=4 / cplxblur=20.0 / qblur=0.5 / ip_ratio=1.40 / pb_ratio=1.30 / aq=2:1.00 Default                                  : Yes Forced                                   : No  Audio ID                                       : 2 Format                                   : AC-3 Format/Info                              : Audio Coding 3 Mode extension                           : CM (complete main) Format settings, Endianness              : Big Codec ID                                 : A_AC3 Duration                                 : 2h 1mn Bit rate mode                            : Constant Bit rate                                 : 384 Kbps Channel(s)                               : 6 channels Channel positions                        : Front: L C R, Side: L R, LFE Sampling rate                            : 48.0 KHz Frame rate                               : 31.250 fps (1536 spf) Compression mode                         : Lossy Stream size                              : 333 MiB (33%) Title                                    : Türkçe - Filmbol.org Default                                  : Yes Forced                                   : No

Film Detayları


Spider Man

Spider Man

Spider Man


Film Fragmanı


Film Detayları

Mini 720P İndir

Uptobox ile indir

1Fichier ile indir

1Fichier'den İndiremiyor musun? Tıklayın!


Mega ile indir

MediaFire ile indir



Konu ile Alakalı Benzer Konular
Konular Yazar Yorumlar Okunma Son Yorum
Filmin Yayınlanma Tarihi: 2020
Larva Adası Filmi (The Larva Island Movie) - 2020 - TR+ORG - 720P BroserBros 0 32 , Saat: 20:06
Son Yorum: BroserBros
Filmin Yayınlanma Tarihi: 2019
Uyanış (Wake Up) - 2019 - TR+ORG - 720P BroserBros 0 33 , Saat: 19:49
Son Yorum: BroserBros
Filmin Yayınlanma Tarihi: 2019
Villains (Villains) - 2019 - TR+ORG - 720P BroserBros 0 61 11-08-2020, Saat: 15:41
Son Yorum: BroserBros
Filmin Yayınlanma Tarihi: 2020
Fatal Affair (Fatal Affair) - 2020 - TR+ORG - 720P BroserBros 0 154 07-08-2020, Saat: 20:13
Son Yorum: BroserBros
Filmin Yayınlanma Tarihi: 2018
Seksi Kadın (MILF) - 2018 - TR+ORG - 720P BroserBros 0 136 07-08-2020, Saat: 19:54
Son Yorum: BroserBros

Hızlı Menü: