Hoşgeldin, Ziyaretçi: Giriş Yap Üye Ol


Konuyu Oyla:
  • Derecelendirme: 0/5 - 0 oy
  • 1
  • 2
  • 3
  • 4
  • 5
Title: Örümcek-Adam (Spider-Man) Türkçe Dublaj BLURAY 1080P İndir
Gösterim Stili
#1
Filmin Yayınlanma Tarihi: 2002 

vizyon tarihi


14 Haziran 2002

imdb puanı


7,3 / 660,000

süre


121 dakika

Editör Puanı


8,2 / 10

Video Format: Mkv


Matroska (.MKV)

Ses Kodek: AC3


Audio Coding 3 (AC3)

sürüm


x264 | 1080P | BLURAY

Boyutlar


2,09



Spider Man



Peter Parker, çifte hayat yaşayıp Örümcek Adam olarak suçlularla savaşmaktan yorgun düşmüş mutsuz bir adamdır. Hayatı inişe geçmiştir. Sevdiği kadın bir başkası ile nişanlanmış, dereceleri yokuş aşağı kayıp gitmekte, hiçbir işi başaramamaktadır. Dahası Daily Bugle gazetesi, Örümcek Adam’ın bir suçlu olduğu iddiası ile kendisine acımasızca saldırmaktadır. Kırılma noktasına ulaşan Peter, bu kimliğinden vazgeçmeye karar verir. Ancak başarılı olmayan bir dönüşüm deneyimi ile eksantrik ve obsesif bilim adamı Doktor Otto Octavius, dört uzun dokunaçlı bir cani olarak Doktor Ahtapot’a dönüşür. Peter, belki de Örümcek Adam’ın geri dönüş zamanı olduğunu düşünmeye başlar.

Örümcek-Adam (2002) (Spider-Man) Filmi Imdb'den 660,000 kişi tarafından oylandı ve 7,3 puan aldı. Bu film için editör puanı 8,2 olarak belirlendi. İyi Seyirler!

Teknik Detaylar

Kod:
General Unique ID                                : 296604976419803386239540669283459201831 (0xDF240A6310B94B5EB7BFE227F428FB27) Complete name                            : /root/Desktop/8/Örümcek.Adam.2002.1080p.BluRay.x264.TR.Filmbol.mkv Format                                   : Matroska Format version                           : Version 4 / Version 2 File size                                : 2.09 GiB Duration                                 : 2h 1mn Overall bit rate                         : 2 466 Kbps Movie name                               : Spider Man (2002) - Filmbol.org Encoded date                             : UTC 2020-01-08 18:06:36 Writing application                      : mkvmerge v35.0.0 ('All The Love In The World') 64-bit Writing library                          : libebml v1.3.9 + libmatroska v1.5.2  Video ID                                       : 1 Format                                   : AVC Format/Info                              : Advanced Video Codec Format profile                           : High@L4.1 Format settings, CABAC                   : Yes Format settings, ReFrames                : 4 frames Codec ID                                 : V_MPEG4/ISO/AVC Duration                                 : 2h 1mn Bit rate                                 : 2 080 Kbps Width                                    : 1 920 pixels Height                                   : 1 040 pixels Display aspect ratio                     : 1.85:1 Frame rate mode                          : Constant Frame rate                               : 23.976 (24000/1001) fps Original frame rate                      : 23.976 (23976/1000) fps Color space                              : YUV Chroma subsampling                       : 4:2:0 Bit depth                                : 8 bits Scan type                                : Progressive Bits/(Pixel*Frame)                       : 0.043 Stream size                              : 1.76 GiB (84%) Title                                    : 1080P - Filmbol.org Writing library                          : x264 core 142 r2409 d6b4e63 Encoding settings                        : cabac=1 / ref=4 / deblock=1:-1:-1 / analyse=0x3:0x133 / me=umh / subme=9 / psy=1 / psy_rd=1.00:0.15 / mixed_ref=1 / me_range=24 / chroma_me=1 / trellis=2 / 8x8dct=1 / cqm=0 / deadzone=21,11 / fast_pskip=0 / chroma_qp_offset=-3 / threads=60 / lookahead_threads=5 / sliced_threads=0 / nr=0 / decimate=1 / interlaced=0 / bluray_compat=0 / constrained_intra=0 / bframes=3 / b_pyramid=2 / b_adapt=2 / b_bias=0 / direct=3 / weightb=1 / open_gop=0 / weightp=2 / keyint=250 / keyint_min=23 / scenecut=40 / intra_refresh=0 / rc_lookahead=60 / rc=2pass / mbtree=1 / bitrate=2080 / ratetol=1.0 / qcomp=0.60 / qpmin=0 / qpmax=69 / qpstep=4 / cplxblur=20.0 / qblur=0.5 / vbv_maxrate=31250 / vbv_bufsize=31250 / nal_hrd=none / filler=0 / ip_ratio=1.40 / aq=1:1.00 Default                                  : Yes Forced                                   : No Color range                              : Limited Color primaries                          : BT.709 Matrix coefficients                      : BT.709  Audio ID                                       : 2 Format                                   : AC-3 Format/Info                              : Audio Coding 3 Mode extension                           : CM (complete main) Format settings, Endianness              : Big Codec ID                                 : A_AC3 Duration                                 : 2h 1mn Bit rate mode                            : Constant Bit rate                                 : 384 Kbps Channel(s)                               : 6 channels Channel positions                        : Front: L C R, Side: L R, LFE Sampling rate                            : 48.0 KHz Frame rate                               : 31.250 fps (1536 spf) Compression mode                         : Lossy Stream size                              : 333 MiB (16%) Title                                    : Türkçe - Filmbol.org Default                                  : Yes Forced                                   : No

Film Detayları


Spider Man

Spider Man

Spider Man


Film Fragmanı


Film Detayları


Mini 1080P İndir

Uptobox ile indir

1Fichier ile indir

Mega linki şuan da gizli. Kullanıma açmak için konuya yorum yapın ve ardından sayfayı yenileyin. Ayrıca bu linki açtığınızda reklamsız olarak erişebileceğinizi unutmayın.

Mega


Mediafire linki şuan da gizli. Kullanıma açmak için konuya yorum yapın ve ardından sayfayı yenileyin. Ayrıca bu linki açtığınızda reklamsız olarak erişebileceğinizi unutmayın.

Mediafire

 
Cevapla
#2
Çok başarılı bir fantastik film kesinlikle izlenmesi gerek
 
Cevapla
  


Konu ile Alakalı Benzer Konular
Konular Yazar Yorumlar Okunma Son Yorum
Filmin Yayınlanma Tarihi: 2007 Örümcek Adam 3 (Spider-Man 3) Türkçe Dublaj BLURAY 1080P İndir BroserBros 0 45 23-01-2020, Saat: 19:09
Son Yorum: BroserBros
Filmin Yayınlanma Tarihi: 2004 Örümcek Adam 2 (Spider-Man 2) Türkçe Dublaj BLURAY 1080P İndir BroserBros 0 43 23-01-2020, Saat: 19:00
Son Yorum: BroserBros
Filmin Yayınlanma Tarihi: 2016 Bayan Peregrine'in Tuhaf Çocukları (2016) Türkçe Dublaj DUAL 1080P İndir BroserBros 3 2,764 21-01-2020, Saat: 19:32
Son Yorum: ahkna
Filmin Yayınlanma Tarihi: 2015 Çılgın Max: Öfkeli Yollar (2015) Türkçe Dublaj 1080P İndir BroserBros 6 3,038 16-01-2020, Saat: 21:19
Son Yorum: ismail1231
Filmin Yayınlanma Tarihi: 2015 Jurassic Park 4 (Jurassic World) Türkçe Dublaj 1080P İndir BroserBros 14 5,496 13-01-2020, Saat: 22:46
Son Yorum: sairdenizler

Hızlı Menü:


Browsing: 1 Ziyaretçi