Hoşgeldin, Ziyaretçi: Giriş Yap Üye Ol


stats
Adblock'u kapattıysanız tıklayın.
Hoşgeldiniz!
Filmbol'u tercih ettiğiniz için teşekkürler, ancak ablock kullanarak devam edemezsiniz.
Merak etmeyin. Heryerden ardı ardına çıkan reklamlar görmeyeceksiniz :)

Sadece site içi 1 reklam göreceksin ve bu site gezintini etkilemeyecek.
Konuyu Oyla:
  • Derecelendirme: 0/5 - 0 oy
  • 1
  • 2
  • 3
  • 4
  • 5
Title: Örümcek Adam: Örümcek Evreninde (Spider-Man) Türkçe Dublaj BLURAY m720P İndir
Gösterim Stili
#1
Filmin Yayınlanma Tarihi: 2018 

indirme türü


Bulut + Premium

vizyon tarihi


14 Aralık 2018

Boyutlar


1,17

diller


[TR]

altyazilar


Yok [Eklenebilir]

Video Format: Mkv


Matroska (.MKV)

Video Detay


MPEG-4, 1050 Kbps, 0,87 GB

imdb puanı


8,5 / 10,0 / 230,000

süre


117 dakika

Ses Kodek: AC3


Audio Coding 3 (AC3)

Ses Detay


384 Kbps, 6 Kanal, 321 Mb

Editör Puanı


8,8

Genislik Yukseklik


1280-534

sürüm


x264 | m720P



Film Detayları

Genç Miles Morales, tüm tehditleri yok etmek için 5 arkadaşı ile yeni bir boyuta açılır: Örümcek Evreni. Morales, bu evrenden sıyrılarak Örümcek Adam olacak ve tüm tehditleri yok edebilecek midir?


Teknik Detaylar


Kod:
General
Complete name                            : Örümcek-Adam:Örümcek.Evreninde.2018.m720p.BLURAY.x264.TR.Filmbol.mkv
Format                                   : Matroska
Format version                           : Version 4 / Version 2
File size                                : 1.17 GiB
Duration                                 : 1h 56mn
Overall bit rate                         : 1 436 Kbps
Movie name                               : Örümcek Adam: Örümcek Evreninde (2018) - Filmbol.org
Encoded date                             : UTC 2019-07-13 17:23:24
Writing application                      : mkvmerge v35.0.0 ('All The Love In The World') 64-bit
Writing library                          : libebml v1.3.9 + libmatroska v1.5.2

Video
ID                                       : 1
Format                                   : AVC
Format/Info                              : Advanced Video Codec
Format profile                           : High@L4.1
Format settings, CABAC                   : Yes
Format settings, ReFrames                : 4 frames
Codec ID                                 : V_MPEG4/ISO/AVC
Duration                                 : 1h 56mn
Bit rate                                 : 1 050 Kbps
Width                                    : 1 280 pixels
Height                                   : 534 pixels
Display aspect ratio                     : 2.40:1
Original display aspect ratio            : 2.40:1
Frame rate mode                          : Constant
Frame rate                               : 23.976 (24000/1001) fps
Color space                              : YUV
Chroma subsampling                       : 4:2:0
Bit depth                                : 8 bits
Scan type                                : Progressive
Bits/(Pixel*Frame)                       : 0.064
Stream size                              : 877 MiB (73%)
Title                                    : m720P - Filmbol.org
Writing library                          : x264 core 157
Default                                  : Yes
Forced                                   : No

Audio
ID                                       : 2
Format                                   : AC-3
Format/Info                              : Audio Coding 3
Mode extension                           : CM (complete main)
Format settings, Endianness              : Big
Codec ID                                 : A_AC3
Duration                                 : 1h 56mn
Bit rate mode                            : Constant
Bit rate                                 : 384 Kbps
Channel(s)                               : 6 channels
Channel positions                        : Front: L C R, Side: L R, LFE
Sampling rate                            : 48.0 KHz
Frame rate                               : 31.250 fps (1536 spf)
Compression mode                         : Lossy
Stream size                              : 321 MiB (27%)
Title                                    : Türkçe - Filmbol.org
Language                                 : Turkish
Default                                  : Yes
Forced                                   : No


Film Detayları


Orumcek Adam Orumcek Evreninde Turkce Dublaj indir

Orumcek Adam Orumcek Evreninde Turkce Dublaj indir

Orumcek Adam Orumcek Evreninde Turkce Dublaj indir

Orumcek Adam Orumcek Evreninde Turkce Dublaj indir

Orumcek Adam Orumcek Evreninde Turkce Dublaj indir


Film Fragmanı


Film Detayları

Mini 720P İndir


Turbobit İle İndir

Uptobox ile indir

Dosya Upload ile indir

Filmbol'da aşağıdaki linkler sadece üyelere sunulur. Ayrıca bu linklerde link kısaltma servisleri kullanılmaz, linke tek tık ile reklamsız erişirsiniz. Konu'ya yorum yapın ve sayfayı yenileyin. Reklamsız linkler (en az 3 en fazla 5 link) açılmış olacaktır. Not: Filmbol'a üye olmak tamamen ücretsizdir, en az 3 link kuralı 01.07.2019 tarihinden sonraki paylaşımlar için geçerlidir. Ancak çoğu film için en az bir premium link her zaman bulunur.

Mega

Dosyaco

Dosyaupload

Mediafire

Google Drive
 
Cevapla
#2
.....
 
Cevapla
#3
Süper
 
Cevapla
#4
Filmin Yayınlanma Tarihi: 2008 
fsaffsafsa

fsafsa
 
Cevapla
#5
Güzel
 
Cevapla
#6
Fena bi film o
 
Cevapla
#7
Smile Smile Smile

link silinmiş
 
Cevapla
  


Konu ile Alakalı Benzer Konular
Konular Yazar Yorumlar Okunma Son Yorum
Filmin Yayınlanma Tarihi: 2019 Ralph ve İnternet (Ralph Breaks the Internet) Türkçe Dublaj BLURAY m720P İndir BroserBros 5 138 13-10-2019, Saat: 17:41
Son Yorum: tenteci

Hızlı Menü:


Browsing: 1 Ziyaretçi