Filmbol Forum Film İndir BRRip XviD v Örümcek-Adam: Eve Dönüş (Spider-Man: Homecoming) Türkçe Dublaj Brrip Xvid İndir
Filmbol'da moderatör olmak ister misiniz? Bizimle iletişime geçmek için tıklayın!
Örümcek-Adam: Eve Dönüş (Spider-Man: Homecoming) Türkçe Dublaj Brrip Xvid İndir
BroserBros
Örümcek-Adam: Eve Dönüş (Spider-Man: Homecoming) Türkçe Dublaj Brrip Xvid İndir
2
693
  • Derecelendirme: 0/5 - 0 oy
  • 1
  • 2
  • 3
  • 4
  • 5
Konuyu Okuyanlar:1 Ziyaretçi
Şuan Online!
Filmin Yayınlanma Tarihi: 2017 
Şuan Online!
BroserBros Kurucu Admin
*******
Admin

indirme türü


Bulut + Premium

Vizyon Tarihi


07 Haziran 2017

Boyutlar


1,91

diller


[TR]

altyazilar


Yok [Eklenebilir]

Video Format: Avi


Audio Video Interleave (.AVI)

Video Detay


MPEG-4, 1904Kbps, 1,78GB

imdb puanı


7,4 / 10,0 / 470,000

süre


133 dakika

Ses Kodek: MP3


MPEG-1 Audio Layer III (MP3)

Ses Detay


128 Kbps, 2 Kanal, 122Mb

Editör Puanı


7,9

Genislik Yukseklik


720-300

sürüm


h263 | Brrip Xvid




Örümcek-Adam: Eve Dönüş


Film Detayları

Yenilmezler ile yaşadığı maceranın büyüsüne kapılan genç Peter kendini kanıtlama isteğiyle dolup taşan bir gençtir. Ancak yaşı gereği birçok farklı sorumluluğu vardır. May halası ile yaşayan genç Peter bir yandan da ona göz kulak olan Demir Adam ile arkadaşlığını ilerletmiştir. Okul hayatına alışmaya ve sıradan bir genç gibi yaşamaya çalışan Peter'ın aklında ise suçla savaşmak ve dünyayı daha güvenli bir hale getirmek vardır. Vulture yepyeni bir düşmanı yaşadığı şehre gönderdiğinde ise Peter'ın kendini gösterme fırsatı çıkacak, ancak en değerli gördüğü herkes tehdit altında olacaktır...

Örümcek-Adam: Eve Dönüş (Spider-Man: Homecoming) Filmi Imdb'den 470,000 kişi tarafından oylandı ve 7,4 puan aldı. Bu film için editör puanı 7,9 olarak belirlendi. İyi Seyirler!


Teknik Detaylar


Kod :
General
Complete name                            : Örümcek.Adam.Eve.Dönüş.2017.BDRip.XviD.TR.Filmbol.avi
Format                                   : AVI
Format/Info                              : Audio Video Interleave
File size                                : 1.91 GiB
Duration                                 : 2h 13mn
Overall bit rate                         : 2 045 Kbps

Video
ID                                       : 0
Format                                   : MPEG-4 Visual
Format profile                           : Advanced Simple@L4
Format settings, BVOP                    : 2
Format settings, QPel                    : No
Format settings, GMC                     : No warppoints
Format settings, Matrix                  : Default (H.263)
Codec ID                                 : DIVX
Codec ID/Info                            : Project Mayo
Codec ID/Hint                            : DivX 4
Duration                                 : 2h 13mn
Bit rate                                 : 1 904 Kbps
Width                                    : 720 pixels
Height                                   : 300 pixels
Display aspect ratio                     : 2.40:1
Frame rate                               : 23.976 (24000/1001) fps
Color space                              : YUV
Chroma subsampling                       : 4:2:0
Bit depth                                : 8 bits
Scan type                                : Progressive
Compression mode                         : Lossy
Bits/(Pixel*Frame)                       : 0.368
Stream size                              : 1.78 GiB (93%)
Writing library                          : XviD 67

Audio
ID                                       : 1
Format                                   : MPEG Audio
Format version                           : Version 1
Format profile                           : Layer 3
Codec ID                                 : 55
Codec ID/Hint                            : MP3
Duration                                 : 2h 13mn
Bit rate mode                            : Constant
Bit rate                                 : 128 Kbps
Channel(s)                               : 2 channels
Sampling rate                            : 48.0 KHz
Compression mode                         : Lossy
Stream size                              : 122 MiB (6%)
Alignment                                : Aligned on interleaves
Interleave, duration                     : 24 ms (0.58 video frame)

Film Detayları


Örümcek-Adam: Eve Dönüş

Örümcek-Adam: Eve Dönüş

Örümcek-Adam: Eve Dönüş


Film Fragmanı


Film Detayları

Brrip İndir



Uptobox ile indir

1Fichier ile indir

1Fichier'den İndiremiyor musun? Tıklayın!


LetsUpload ile indir

Mega ile indir

MediaFire ile indir

Şuan Offine!
Şuan Offine!
sectechno Süper Üye
***
Super Üye

  • Konular9
  • Mesajlar70
  • Rep puanı 0
Teşekkürler Admin.Emeğine sağlık,
kolay gelsin.İyi çalışmalar.
Şuan Offine!
Şuan Offine!
trend123 Yeni Üye
*
Üye

  • Konular0
  • Mesajlar5
  • Rep puanı 0
Fılm i izlemedim ama baya merak ediyorum  Heart


Konu ile Alakalı Benzer Konular
Konular Yazar Yorumlar Okunma Son Yorum
Filmin Yayınlanma Tarihi: 2019
Luce (Luce) - 2019 - TR - BRRip XviD BroserBros 0 15 8 saat önce
Son Yorum: BroserBros
Filmin Yayınlanma Tarihi: 2020
Aşka İnan (I Still Believe) - 2020 - TR - BRRip XviD BroserBros 0 14 9 saat önce
Son Yorum: BroserBros
Filmin Yayınlanma Tarihi: 2018
Döndüm Ben (Yerli) - 2018 - TR - BRRip XviD BroserBros 0 35 27-11-2020, Saat: 18:40
Son Yorum: BroserBros
Filmin Yayınlanma Tarihi: 2018
Bana Bir Soygun Yaz 2 (Yerli) - 2018 - TR - BRRip XviD BroserBros 0 27 27-11-2020, Saat: 18:26
Son Yorum: BroserBros
Filmin Yayınlanma Tarihi: 2007
Amerikan Pastası 6: Beta Evi (American Pie: Beta House) - 2007 - TR - BRRip XviD BroserBros 2 247 27-11-2020, Saat: 14:31
Son Yorum: tayyib5731

Hızlı Menü: