Filmbol Forum Film İndir 720P v Örümcek-Adam: Eve Dönüş (Spider-Man: Homecoming) Türkçe Dublaj 720P İndir
Mega linklerinin şikayet edilmemesi için global erişime kapatıp sadece yorum yapanlara açıyoruz. Bu linkleri gizleme işlemini mecburen yapıyoruz ve yorum yapmanızın siteye değil size faydası vardır. Teşekürler yazmayı çok görüp, Random/Spam mesajlar atarak Mega linklerini açmaya çalışan kullanıcılara önce süresiz ban, devam ederse IP ban atacağız.
Filmbol'da moderatör olmak ister misiniz? Bizimle iletişime geçmek için tıklayın!
Örümcek-Adam: Eve Dönüş (Spider-Man: Homecoming) Türkçe Dublaj 720P İndir
BroserBros
Örümcek-Adam: Eve Dönüş (Spider-Man: Homecoming) Türkçe Dublaj 720P İndir
9
1198
  • Derecelendirme: 0/5 - 0 oy
  • 1
  • 2
  • 3
  • 4
  • 5
Konuyu Okuyanlar:2 Ziyaretçi
Şuan Online!
Filmin Yayınlanma Tarihi: 2017 
WWW
Şuan Online!
BroserBros Kurucu Admin
*******
Admin





Ses Kodek: AC3


Audio Coding 3 (AC3)






Örümcek-Adam: Eve Dönüş



Teknik Detaylar


Kod :
General
Complete name                            : Örümcek.Adam.Eve.Dönüş.2017.m720p.BLURAY.x264.TR.Filmbol.mkv
Format                                   : Matroska
Format version                           : Version 4 / Version 2
File size                                : 1.26 GiB
Duration                                 : 2h 13mn
Overall bit rate                         : 1 349 Kbps
Movie name                               : Örümcek Adam: Eve Dönüş (2017) - Filmbol.org
Encoded date                             : UTC 2019-12-05 20:28:10
Writing application                      : mkvmerge v35.0.0 ('All The Love In The World') 64-bit
Writing library                          : libebml v1.3.9 + libmatroska v1.5.2

Video
ID                                       : 1
Format                                   : AVC
Format/Info                              : Advanced Video Codec
Format profile                           : [email protected]
Format settings, CABAC                   : Yes
Format settings, ReFrames                : 4 frames
Codec ID                                 : V_MPEG4/ISO/AVC
Duration                                 : 2h 13mn
Bit rate                                 : 900 Kbps
Width                                    : 1 280 pixels
Height                                   : 534 pixels
Display aspect ratio                     : 2.40:1
Original display aspect ratio            : 2.40:1
Frame rate mode                          : Constant
Frame rate                               : 23.976 (24000/1001) fps
Color space                              : YUV
Chroma subsampling                       : 4:2:0
Bit depth                                : 8 bits
Scan type                                : Progressive
Bits/(Pixel*Frame)                       : 0.055
Stream size                              : 859 MiB (67%)
Title                                    : 720P - Filmbol.org
Writing library                          : x264 core 148
Default                                  : Yes
Forced                                   : No

Audio
ID                                       : 2
Format                                   : AC-3
Format/Info                              : Audio Coding 3
Mode extension                           : CM (complete main)
Format settings, Endianness              : Big
Codec ID                                 : A_AC3
Duration                                 : 2h 13mn
Bit rate mode                            : Constant
Bit rate                                 : 448 Kbps
Channel(s)                               : 6 channels
Channel positions                        : Front: L C R, Side: L R, LFE
Sampling rate                            : 48.0 KHz
Frame rate                               : 31.250 fps (1536 spf)
Compression mode                         : Lossy
Stream size                              : 428 MiB (33%)
Title                                    : Türkçe - Filmbol.org
Language                                 : Turkish
Default                                  : Yes
Forced                                   : No

Film Detayları


Örümcek-Adam: Eve Dönüş

Örümcek-Adam: Eve Dönüş

Örümcek-Adam: Eve Dönüş


Film Fragmanı


Film Detayları

Mini 720P İndir



Uptobox ile indir

1Fichier ile indir

1Fichier'den İndiremiyor musun? Tıklayın!


Mega linki şuan da gizli. Kullanıma açmak için konuya yorum yapın ve ardından sayfayı yenileyin.

Mega


MediaFire ile indir

Şuan Offine!
Şuan Offine!
Arif DEĞERCAN Süper Üye
***
Super Üye

  • Konular0
  • Mesajlar33
  • Rep puanı 0
Wink Wink Wink
Şuan Offine!
Şuan Offine!
sametguler61 Yeni Üye
*
Üye

  • Konular0
  • Mesajlar5
  • Rep puanı 0
Atguzel film
Şuan Offine!
Şuan Offine!
evenstar Uzman Üye
**
Uzman Üye

  • Konular0
  • Mesajlar22
  • Rep puanı 0
teşekkürler
Şuan Offine!
Şuan Offine!
baranturan07 Uzman Üye
**
Uzman Üye

  • Konular0
  • Mesajlar9
  • Rep puanı 0
Smileİnşallah güzeldir
Şuan Offine!
Şuan Offine!
serhatsenturk584 Yeni Üye
*
Üye

  • Konular0
  • Mesajlar2
  • Rep puanı 0
teşekkürler ellerinize saglık
Şuan Offine!
Şuan Offine!
flyerncrs Yeni Üye
*
Üye

  • Konular0
  • Mesajlar3
  • Rep puanı 0
çok güzel bir film  :heart:
Şuan Offine!
Şuan Offine!
Mametdurmaz Yeni Üye
*
Üye

  • Konular0
  • Mesajlar1
  • Rep puanı 0
Tskrler
Şuan Offine!
Şuan Offine!
ardaberat Yeni Üye
*
Üye

  • Konular0
  • Mesajlar1
  • Rep puanı 0
çok iyi film
Şuan Offine!
Şuan Offine!
Doktorasi Yeni Üye
*
Üye

  • Konular0
  • Mesajlar4
  • Rep puanı 0
Teşekkürler


Konu ile Alakalı Benzer Konular
Konular Yazar Yorumlar Okunma Son Yorum
Filmin Yayınlanma Tarihi: 2018
urtiz (Curtiz) - 2018 - TR+ORG - 720P | tt6774588 BroserBros 1 248 3 dakika önce
Son Yorum: BroserBros
Filmin Yayınlanma Tarihi: 2019
Bir Köpeğin Fantastik Hikayesi (L'extraordinaire voyage de Marona) - 2019 - TR+ORG - 720P | tt6785292 TheSteeL 0 3 39 dakika önce
Son Yorum: TheSteeL
Filmin Yayınlanma Tarihi: 2019
The Jesus Rolls: Quintana Dönüyor (The Jesus Rolls) - 2019 - TR+ORG - 720P | tt5974030 TheSteeL 0 3 54 dakika önce
Son Yorum: TheSteeL
Filmin Yayınlanma Tarihi: 2014
John Wick (John Wick) Türkçe Dublaj 720P İndir BroserBros 9 12,133 1 saat önce
Son Yorum: ishak
Filmin Yayınlanma Tarihi: 2019
Onur Madalyası (The Last Full Measure) - 2019 - TR+ORG - 720P | tt0783640 TheSteeL 0 35 , Saat: 21:23
Son Yorum: TheSteeL

Hızlı Menü: