Filmbol Forum Film İndir 3D v Örümcek-Adam: Eve Dönüş (Spider-Man: Homecoming) Türkçe Dublaj 3D İndir
Filmbol'da moderatör olmak ister misiniz? Bizimle iletişime geçmek için tıklayın!
Örümcek-Adam: Eve Dönüş (Spider-Man: Homecoming) Türkçe Dublaj 3D İndir
BroserBros
Örümcek-Adam: Eve Dönüş (Spider-Man: Homecoming) Türkçe Dublaj 3D İndir
6
843
  • Derecelendirme: 0/5 - 0 oy
  • 1
  • 2
  • 3
  • 4
  • 5
Konuyu Okuyanlar:1 Ziyaretçi
Şuan Online!
Filmin Yayınlanma Tarihi: 2017 
Şuan Online!
BroserBros Kurucu Admin
*******
Admin

indirme türü


Bulut + Premium

Vizyon Tarihi


07 Haziran 2017

Boyutlar


2,33

diller


[TR]

altyazilar


Yok [Eklenebilir]

Video Format: Mkv


Matroska (.MKV)

Video Detay


MPEG-4, 2050Kbps, 1,91GB

imdb puanı


7,4 / 10,0 / 470,000

süre


133 dakika

Ses Kodek: AC3


Audio Coding 3 (AC3)

Ses Detay


448 Kbps, 6 Kanal, 428Mb

Editör Puanı


7,9

Genislik Yukseklik


1920-800

sürüm


x264 | 3D




Örümcek-Adam: Eve Dönüş


Film Detayları

Yenilmezler ile yaşadığı maceranın büyüsüne kapılan genç Peter kendini kanıtlama isteğiyle dolup taşan bir gençtir. Ancak yaşı gereği birçok farklı sorumluluğu vardır. May halası ile yaşayan genç Peter bir yandan da ona göz kulak olan Demir Adam ile arkadaşlığını ilerletmiştir. Okul hayatına alışmaya ve sıradan bir genç gibi yaşamaya çalışan Peter'ın aklında ise suçla savaşmak ve dünyayı daha güvenli bir hale getirmek vardır. Vulture yepyeni bir düşmanı yaşadığı şehre gönderdiğinde ise Peter'ın kendini gösterme fırsatı çıkacak, ancak en değerli gördüğü herkes tehdit altında olacaktır...

Örümcek-Adam: Eve Dönüş (Spider-Man: Homecoming) Filmi Imdb'den 470,000 kişi tarafından oylandı ve 7,4 puan aldı. Bu film için editör puanı 7,9 olarak belirlendi. İyi Seyirler!


Teknik Detaylar


Kod :
General
Complete name                            : Örümcek.Adam.Eve.Dönüş.2017.m3D.BLURAY.x264.TR.Filmbol.mkv
Format                                   : Matroska
Format version                           : Version 4 / Version 2
File size                                : 2.33 GiB
Duration                                 : 2h 13mn
Overall bit rate                         : 2 499 Kbps
Movie name                               : Örümcek Adam: Eve Dönüş (2017) - Filmbol.org
Encoded date                             : UTC 2019-12-05 20:43:17
Writing application                      : mkvmerge v35.0.0 ('All The Love In The World') 64-bit
Writing library                          : libebml v1.3.9 + libmatroska v1.5.2

Video
ID                                       : 1
Format                                   : AVC
Format/Info                              : Advanced Video Codec
Format profile                           : High@L4.1
Format settings, CABAC                   : Yes
Format settings, ReFrames                : 4 frames
Codec ID                                 : V_MPEG4/ISO/AVC
Duration                                 : 2h 13mn
Bit rate                                 : 2 050 Kbps
Width                                    : 1 920 pixels
Height                                   : 800 pixels
Display aspect ratio                     : 2.40:1
Frame rate mode                          : Constant
Frame rate                               : 23.976 (24000/1001) fps
Color space                              : YUV
Chroma subsampling                       : 4:2:0
Bit depth                                : 8 bits
Scan type                                : Progressive
Bits/(Pixel*Frame)                       : 0.056
Stream size                              : 1.91 GiB (82%)
Title                                    : m3D - Filmbol.org
Writing library                          : x264 core 148
Default                                  : Yes
Forced                                   : No

Audio
ID                                       : 2
Format                                   : AC-3
Format/Info                              : Audio Coding 3
Mode extension                           : CM (complete main)
Format settings, Endianness              : Big
Codec ID                                 : A_AC3
Duration                                 : 2h 13mn
Bit rate mode                            : Constant
Bit rate                                 : 448 Kbps
Channel(s)                               : 6 channels
Channel positions                        : Front: L C R, Side: L R, LFE
Sampling rate                            : 48.0 KHz
Frame rate                               : 31.250 fps (1536 spf)
Compression mode                         : Lossy
Stream size                              : 428 MiB (18%)
Title                                    : Türkçe - Filmbol.org
Language                                 : Turkish
Default                                  : Yes
Forced                                   : No

Film Detayları


Örümcek-Adam: Eve Dönüş

Örümcek-Adam: Eve Dönüş

Örümcek-Adam: Eve Dönüş


Film Fragmanı


Film Detayları

Mini 3D İndir



Uptobox ile indir

1Fichier ile indir

1Fichier'den İndiremiyor musun? Tıklayın!


LetsUpload ile indir

Mega ile indir

MediaFire ile indir

Şuan Offine!
Şuan Offine!
ısadnasd Uzman Üye
**
Uzman Üye

  • Konular0
  • Mesajlar8
  • Rep puanı 0
saadasdddddsa
Şuan Offine!
Şuan Offine!
mme Yeni Üye
*
Üye

  • Konular0
  • Mesajlar2
  • Rep puanı 0
niceeeeeeeeee mühhhhghghgh
Şuan Offine!
Şuan Offine!
Aspirin46 Süper Üye
***
Super Üye

  • Konular0
  • Mesajlar54
  • Rep puanı 0
süper
Şuan Offine!
Şuan Offine!
baranturan07 Uzman Üye
**
Uzman Üye

  • Konular0
  • Mesajlar9
  • Rep puanı 0
filmi çok beğendim
Tongue
Şuan Offine!
Şuan Offine!
Madebodom Yeni Üye
*
Üye

  • Konular0
  • Mesajlar1
  • Rep puanı 0
Teşekkürler (:
Şuan Offine!
Şuan Offine!
SneakyWolf Yeni Üye
*
Üye

  • Konular0
  • Mesajlar1
  • Rep puanı 0
asşlkjmflksxdnfglkdsn


Konu ile Alakalı Benzer Konular
Konular Yazar Yorumlar Okunma Son Yorum
Filmin Yayınlanma Tarihi: 2018
Karınca-Adam ve Eşek Arısı (Ant-Man and Wasp) Türkçe Dublaj BLURAY 3D İndir BroserBros 3 671 02-02-2020, Saat: 03:42
Son Yorum: cebir55

Hızlı Menü: