Hoşgeldin, Ziyaretçi: Giriş Yap Üye Ol


stats
Adblock'u kapattıysanız tıklayın.
Hoşgeldiniz!
Filmbol'u tercih ettiğiniz için teşekkürler, ancak ablock kullanarak devam edemezsiniz.
Merak etmeyin. Heryerden ardı ardına çıkan reklamlar görmeyeceksiniz :)

Sadece site içi 1 reklam göreceksin ve bu site gezintini etkilemeyecek.
Konuyu Oyla:
  • Derecelendirme: 0/5 - 0 oy
  • 1
  • 2
  • 3
  • 4
  • 5
Title: Örümcek Adam: Evden Uzakta (Spider-Man: Far from Home) Türkçe Dublaj m720P İndir
Gösterim Stili
#1
Filmin Yayınlanma Tarihi: 2019 

indirme türü


Bulut + Premium

vizyon tarihi


05 Haziran 2019

Boyutlar


1,34

diller


[TR]

altyazilar


Yok [Eklenebilir]

Video Format: Mkv


Matroska (.MKV)

Video Detay


MPEG-4, 1100 Kbps, 1,08GB

imdb puanı


7,7 / 10,0 / 200,000

süre


129 dakika

Ses Kodek: AC3


Audio Coding 3 (AC3)

Ses Detay


384 Kbps, 6 Kanal, 355 Mb

Editör Puanı


8,0

Genislik Yukseklik


1280-534

sürüm


x264 | m720P





Spider Man Evden Uzakta


Film Detayları

Örümcek-Adam: Evden Uzakta, arkadaşları ile gittiği okul gezisi sırasında gizemli bir görev üstlenmek zorunda kalan Peter Parker'a odaklanıyor. Örümcek Adam macerasının 2. devam halkası olan filmde Peter Parker’ı bir kez daha milyonlarca hayran kazanan yeni nesil Örümcek Adam Tom Holland canlandırıyor. Genç Peter Parker’ın maceralarının anlatılacağı filmin yönetmenliğini Jon Watts üstleniyor.

Örümcek Adam: Evden Uzakta (Spider-Man: Far from Home) Filmi Imdb'den 200,000 kişi tarafından oylandı ve 7,7 puan aldı. Bu film için editör puanı 8,0 olarak belirlendi. İyi Seyirler!


Teknik Detaylar


Kod:
General
Complete name                            : Spider-Man.Evden.Uzakta.2019.m720p.BluRay.x264.TR.Filmbol.mkv
Format                                   : Matroska
Format version                           : Version 4 / Version 2
File size                                : 1.34 GiB
Duration                                 : 2h 9mn
Overall bit rate                         : 1 485 Kbps
Movie name                               : Spider Man - Evden Uzakta
Encoded date                             : UTC 2019-10-02 15:16:34
Writing application                      : mkvmerge v35.0.0 ('All The Love In The World') 64-bit
Writing library                          : libebml v1.3.9 + libmatroska v1.5.2

Video
ID                                       : 1
Format                                   : AVC
Format/Info                              : Advanced Video Codec
Format profile                           : High@L4.1
Format settings, CABAC                   : Yes
Format settings, ReFrames                : 4 frames
Codec ID                                 : V_MPEG4/ISO/AVC
Duration                                 : 2h 9mn
Bit rate                                 : 1 100 Kbps
Width                                    : 1 280 pixels
Height                                   : 534 pixels
Display aspect ratio                     : 2.40:1
Original display aspect ratio            : 2.40:1
Frame rate mode                          : Constant
Frame rate                               : 23.976 (24000/1001) fps
Color space                              : YUV
Chroma subsampling                       : 4:2:0
Bit depth                                : 8 bits
Scan type                                : Progressive
Bits/(Pixel*Frame)                       : 0.067
Stream size                              : 1 018 MiB (74%)
Title                                    : m720P - Filmbol.org
Writing library                          : x264 core 152
Default                                  : Yes
Forced                                   : No

Audio
ID                                       : 2
Format                                   : AC-3
Format/Info                              : Audio Coding 3
Mode extension                           : CM (complete main)
Format settings, Endianness              : Big
Codec ID                                 : A_AC3
Duration                                 : 2h 9mn
Bit rate mode                            : Constant
Bit rate                                 : 384 Kbps
Channel(s)                               : 6 channels
Channel positions                        : Front: L C R, Side: L R, LFE
Sampling rate                            : 48.0 KHz
Frame rate                               : 31.250 fps (1536 spf)
Compression mode                         : Lossy
Stream size                              : 355 MiB (26%)
Title                                    : Türkçe - Filmbol.org
Language                                 : Turkish
Default                                  : Yes
Forced                                   : No


Film Detayları


Spider Man Evden Uzakta

Spider Man Evden Uzakta

Spider Man Evden Uzakta


Film Fragmanı


Film Detayları

Mini 720P İndir


MixDrop ile indir

Uptobox ile indir

LetsUpload ile indir

Filmbol'da aşağıdaki linkler sadece üyelere sunulur. Ayrıca bu linklerde link kısaltma servisleri kullanılmaz, linke tek tık ile reklamsız erişirsiniz. Konu'ya yorum yapın ve sayfayı yenileyin. Reklamsız linkler (en az 3 en fazla 5 link) açılmış olacaktır. Not: Filmbol'a üye olmak tamamen ücretsizdir, en az 3 link kuralı 01.07.2019 tarihinden sonraki paylaşımlar için geçerlidir. Ancak çoğu film için en az bir premium link her zaman bulunur.

Mega

Dosyaco

Dosyaupload

Mediafire

Google Drive
 
Cevapla
#2
Abim bi John Wick 3 gelse..
 
Cevapla
#3
(03-10-2019, Saat: 21:43)Arif DEĞERCAN Adlı Kullanıcıdan Alıntı: Abim bi John Wick 3 gelse..

Çok Yakında..
 
Cevapla
#4
Teşekkürler
 
Cevapla
#5
fsafsa
 
Cevapla
#6
güzel film
 
Cevapla
#7
Beklediğim filmdi teşekkürler.
 
Cevapla
#8
Çok güzel bir film tavsiye ederim
 
Cevapla
#9
teşekkürler.
 
Cevapla
#10
Guzelll
 
Cevapla
  


Konu ile Alakalı Benzer Konular
Konular Yazar Yorumlar Okunma Son Yorum
Filmin Yayınlanma Tarihi: 2018 Örümcek Ağındaki Kız (The Girld in the Spider's Web) Türkçe Dublaj m720P İndir BroserBros 3 111 15-10-2019, Saat: 18:55
Son Yorum: Ahmet34

Hızlı Menü:


Browsing: 2 Ziyaretçi