Hoşgeldin, Ziyaretçi: Giriş Yap Üye Ol


stats
Adblock'u kapattıysanız tıklayın.
Hoşgeldiniz!
Filmbol'u tercih ettiğiniz için teşekkürler, ancak ablock kullanarak devam edemezsiniz.
Merak etmeyin. Heryerden ardı ardına çıkan reklamlar görmeyeceksiniz :)

Sadece site içi 1 reklam göreceksin ve bu site gezintini etkilemeyecek.
Konuyu Oyla:
  • Derecelendirme: 0/5 - 0 oy
  • 1
  • 2
  • 3
  • 4
  • 5
Title: Örümcek Adam: Evden Uzakta (Spider-Man: Far from Home) Türkçe Dublaj Brrip Xvid İndir
Gösterim Stili
#1
Filmin Yayınlanma Tarihi: 2019 

indirme türü


Bulut + Premium

vizyon tarihi


05 Haziran 2019

Boyutlar


1,56

diller


[TR]

altyazilar


Yok [Eklenebilir]

Video Format: Avi


Audio Video Interleave (.AVI)

Video Detay


MPEG-4, 1597 Kbps, 1,44GB

imdb puanı


7,7 / 10,0 / 200,000

süre


129 dakika

Ses Kodek: MP3


MPEG-1 Audio Layer III (MP3)

Ses Detay


128 Kbps, 2 Kanal, 118 Mb

Editör Puanı


8,0

Genislik Yukseklik


720-304

sürüm


h263 | Brrip Xvid





Spider Man Evden Uzakta


Film Detayları

Örümcek-Adam: Evden Uzakta, arkadaşları ile gittiği okul gezisi sırasında gizemli bir görev üstlenmek zorunda kalan Peter Parker'a odaklanıyor. Örümcek Adam macerasının 2. devam halkası olan filmde Peter Parker’ı bir kez daha milyonlarca hayran kazanan yeni nesil Örümcek Adam Tom Holland canlandırıyor. Genç Peter Parker’ın maceralarının anlatılacağı filmin yönetmenliğini Jon Watts üstleniyor.

Örümcek Adam: Evden Uzakta (Spider-Man: Far from Home) Filmi Imdb'den 200,000 kişi tarafından oylandı ve 7,7 puan aldı. Bu film için editör puanı 8,0 olarak belirlendi. İyi Seyirler!


Teknik Detaylar


Kod:
General
Complete name                            : Spider-Man.Evden.Uzakta.2019.BRRip.XviD.TR.avi
Format                                   : AVI
Format/Info                              : Audio Video Interleave
File size                                : 1.57 GiB
Duration                                 : 2h 9mn
Overall bit rate                         : 1 738 Kbps

Video
ID                                       : 0
Format                                   : MPEG-4 Visual
Format profile                           : Simple@L5
Format settings, BVOP                    : No
Format settings, QPel                    : No
Format settings, GMC                     : No warppoints
Format settings, Matrix                  : Default (H.263)
Codec ID                                 : XVID
Codec ID/Hint                            : XviD
Duration                                 : 2h 9mn
Bit rate                                 : 1 597 Kbps
Width                                    : 720 pixels
Height                                   : 304 pixels
Display aspect ratio                     : 2.40:1
Frame rate                               : 23.976 fps
Color space                              : YUV
Chroma subsampling                       : 4:2:0
Bit depth                                : 8 bits
Scan type                                : Progressive
Compression mode                         : Lossy
Bits/(Pixel*Frame)                       : 0.304
Stream size                              : 1.44 GiB (92%)
Writing library                          : Lavc58.35.100

Audio
ID                                       : 1
Format                                   : MPEG Audio
Format version                           : Version 1
Format profile                           : Layer 3
Mode                                     : Joint stereo
Mode extension                           : MS Stereo
Codec ID                                 : 55
Codec ID/Hint                            : MP3
Duration                                 : 2h 9mn
Bit rate mode                            : Constant
Bit rate                                 : 128 Kbps
Channel(s)                               : 2 channels
Sampling rate                            : 48.0 KHz
Compression mode                         : Lossy
Stream size                              : 118 MiB (7%)
Alignment                                : Aligned on interleaves
Interleave, duration                     : 24 ms (0.58 video frame)


Film Detayları


Spider Man Evden Uzakta

Spider Man Evden Uzakta

Spider Man Evden Uzakta


Film Fragmanı


Film Detayları

Brrip İndir


MixDrop ile indir

Uptobox ile indir

LetsUpload ile indir

Filmbol'da aşağıdaki linkler sadece üyelere sunulur. Ayrıca bu linklerde link kısaltma servisleri kullanılmaz, linke tek tık ile reklamsız erişirsiniz. Konu'ya yorum yapın ve sayfayı yenileyin. Reklamsız linkler (en az 3 en fazla 5 link) açılmış olacaktır. Not: Filmbol'a üye olmak tamamen ücretsizdir, en az 3 link kuralı 01.07.2019 tarihinden sonraki paylaşımlar için geçerlidir. Ancak çoğu film için en az bir premium link her zaman bulunur.

Mega

Dosyaco

Dosyaupload

Mediafire

Google Drive
 
Cevapla
#2
BEKLEDİĞİM BİR FİLMDİ TEŞEKKÜRLER
 
Cevapla
#3
BEKLEDİĞİM BİR FİLMDİ TEŞEKKÜRLER
 
Cevapla
#4
tesekkürler.
 
Cevapla
#5
Teşekkürler.
 
Cevapla
  


Konu ile Alakalı Benzer Konular
Konular Yazar Yorumlar Okunma Son Yorum
Filmin Yayınlanma Tarihi: 2019 The Hard Way (2019) Türkçe Dublaj Brrip Xvid İndir BroserBros 1 107 20-10-2019, Saat: 16:52
Son Yorum: komador06
Filmin Yayınlanma Tarihi: 2018 Adaletsiz - Dragged Across Concrete (2018) - Türkçe Dublaj BRRip XviD İndir NtDTr 1 209 20-10-2019, Saat: 16:42
Son Yorum: komador06
Filmin Yayınlanma Tarihi: 2017 John Wick 2 (Chapter 2) Türkçe Dublaj Brrip Xvid İndir BroserBros 2 119 19-09-2019, Saat: 18:44
Son Yorum: BlackWhite
Filmin Yayınlanma Tarihi: 2018 Deadpool 2 Türkçe Dublaj Brrip-Xvid İndir BroserBros 7 1,900 14-09-2019, Saat: 23:00
Son Yorum: edizshady
Filmin Yayınlanma Tarihi: 2018 Entebbe'de 7 Gün (Entebbe) Türkçe Dublaj Brrip Xvid İndir BroserBros 1 121 04-09-2019, Saat: 08:55
Son Yorum: mert06

Hızlı Menü:


Browsing: 3 Ziyaretçi