Filmbol Forum Film İndir BRRip XviD v Örümcek Adam: Evden Uzakta (Spider-Man: Far from Home) Türkçe Dublaj Brrip Xvid İndir
Filmbol'da moderatör olmak ister misiniz? Bizimle iletişime geçmek için tıklayın!
Örümcek Adam: Evden Uzakta (Spider-Man: Far from Home) Türkçe Dublaj Brrip Xvid İndir
BroserBros
Örümcek Adam: Evden Uzakta (Spider-Man: Far from Home) Türkçe Dublaj Brrip Xvid İndir
12
1653
  • Derecelendirme: 0/5 - 0 oy
  • 1
  • 2
  • 3
  • 4
  • 5
Konuyu Okuyanlar:1 Ziyaretçi
Şuan Online!
Filmin Yayınlanma Tarihi: 2019 
Şuan Online!
BroserBros Kurucu Admin
*******
Admin

indirme türü


Bulut + Premium

Vizyon Tarihi


05 Haziran 2019

Boyutlar


1,56

diller


[TR]

altyazilar


Yok [Eklenebilir]

Video Format: Avi


Audio Video Interleave (.AVI)

Video Detay


MPEG-4, 1597 Kbps, 1,44GB

imdb puanı


7,7 / 10,0 / 200,000

süre


129 dakika

Ses Kodek: MP3


MPEG-1 Audio Layer III (MP3)

Ses Detay


128 Kbps, 2 Kanal, 118 Mb

Editör Puanı


8,0

Genislik Yukseklik


720-304

sürüm


h263 | Brrip Xvid




Spider Man Evden Uzakta


Film Detayları

Örümcek-Adam: Evden Uzakta, arkadaşları ile gittiği okul gezisi sırasında gizemli bir görev üstlenmek zorunda kalan Peter Parker'a odaklanıyor. Örümcek Adam macerasının 2. devam halkası olan filmde Peter Parker’ı bir kez daha milyonlarca hayran kazanan yeni nesil Örümcek Adam Tom Holland canlandırıyor. Genç Peter Parker’ın maceralarının anlatılacağı filmin yönetmenliğini Jon Watts üstleniyor.

Örümcek Adam: Evden Uzakta (Spider-Man: Far from Home) Filmi Imdb'den 200,000 kişi tarafından oylandı ve 7,7 puan aldı. Bu film için editör puanı 8,0 olarak belirlendi. İyi Seyirler!


Teknik Detaylar


Kod :
General
Complete name                            : Spider-Man.Evden.Uzakta.2019.BRRip.XviD.TR.avi
Format                                   : AVI
Format/Info                              : Audio Video Interleave
File size                                : 1.57 GiB
Duration                                 : 2h 9mn
Overall bit rate                         : 1 738 Kbps

Video
ID                                       : 0
Format                                   : MPEG-4 Visual
Format profile                           : Simple@L5
Format settings, BVOP                    : No
Format settings, QPel                    : No
Format settings, GMC                     : No warppoints
Format settings, Matrix                  : Default (H.263)
Codec ID                                 : XVID
Codec ID/Hint                            : XviD
Duration                                 : 2h 9mn
Bit rate                                 : 1 597 Kbps
Width                                    : 720 pixels
Height                                   : 304 pixels
Display aspect ratio                     : 2.40:1
Frame rate                               : 23.976 fps
Color space                              : YUV
Chroma subsampling                       : 4:2:0
Bit depth                                : 8 bits
Scan type                                : Progressive
Compression mode                         : Lossy
Bits/(Pixel*Frame)                       : 0.304
Stream size                              : 1.44 GiB (92%)
Writing library                          : Lavc58.35.100

Audio
ID                                       : 1
Format                                   : MPEG Audio
Format version                           : Version 1
Format profile                           : Layer 3
Mode                                     : Joint stereo
Mode extension                           : MS Stereo
Codec ID                                 : 55
Codec ID/Hint                            : MP3
Duration                                 : 2h 9mn
Bit rate mode                            : Constant
Bit rate                                 : 128 Kbps
Channel(s)                               : 2 channels
Sampling rate                            : 48.0 KHz
Compression mode                         : Lossy
Stream size                              : 118 MiB (7%)
Alignment                                : Aligned on interleaves
Interleave, duration                     : 24 ms (0.58 video frame)


Film Detayları


Spider Man Evden Uzakta

Spider Man Evden Uzakta

Spider Man Evden Uzakta


Film Fragmanı


Film Detayları

Brrip İndir


Uptobox ile indir

LetsUpload ile indir

Mega ile indir

MediaFire ile indir

Şuan Offine!
Şuan Offine!
İSMAİL Yeni Üye
*
Üye

  • Konular0
  • Mesajlar4
  • Rep puanı 0
BEKLEDİĞİM BİR FİLMDİ TEŞEKKÜRLER
Şuan Offine!
Şuan Offine!
gece_yagmuru Uzman Üye
**
Uzman Üye

  • Konular0
  • Mesajlar11
  • Rep puanı 0
BEKLEDİĞİM BİR FİLMDİ TEŞEKKÜRLER
Şuan Offine!
Şuan Offine!
leopar110 Yeni Üye
*
Üye

  • Konular0
  • Mesajlar5
  • Rep puanı 0
tesekkürler.
Şuan Offine!
Şuan Offine!
komador06 Süper Üye
***
Super Üye

  • Konular0
  • Mesajlar28
  • Rep puanı 0
Teşekkürler.
Şuan Offine!
Şuan Offine!
efsanem Uzman Üye
**
Uzman Üye

  • Konular0
  • Mesajlar8
  • Rep puanı 0
Teşekkürler.
Şuan Offine!
Şuan Offine!
Ali.ozdemir.46 Yeni Üye
*
Üye

  • Konular0
  • Mesajlar5
  • Rep puanı 0
niceeeee
Şuan Offine!
Şuan Offine!
DeathLight Yeni Üye
*
Üye

  • Konular0
  • Mesajlar2
  • Rep puanı 0
on numara
Şuan Offine!
Şuan Offine!
cemsav97 Süper Üye
***
Super Üye

  • Konular0
  • Mesajlar36
  • Rep puanı 0
Teşekkürler
Şuan Offine!
Şuan Offine!
readerss Uzman Üye
**
Uzman Üye

  • Konular0
  • Mesajlar8
  • Rep puanı 0
goodgood


Konu ile Alakalı Benzer Konular
Konular Yazar Yorumlar Okunma Son Yorum
Filmin Yayınlanma Tarihi: 2019
Luce (Luce) - 2019 - TR - BRRip XviD BroserBros 0 16 9 saat önce
Son Yorum: BroserBros
Filmin Yayınlanma Tarihi: 2020
Aşka İnan (I Still Believe) - 2020 - TR - BRRip XviD BroserBros 0 15 10 saat önce
Son Yorum: BroserBros
Filmin Yayınlanma Tarihi: 2018
Döndüm Ben (Yerli) - 2018 - TR - BRRip XviD BroserBros 0 36 27-11-2020, Saat: 18:40
Son Yorum: BroserBros
Filmin Yayınlanma Tarihi: 2018
Bana Bir Soygun Yaz 2 (Yerli) - 2018 - TR - BRRip XviD BroserBros 0 27 27-11-2020, Saat: 18:26
Son Yorum: BroserBros
Filmin Yayınlanma Tarihi: 2007
Amerikan Pastası 6: Beta Evi (American Pie: Beta House) - 2007 - TR - BRRip XviD BroserBros 2 247 27-11-2020, Saat: 14:31
Son Yorum: tayyib5731

Hızlı Menü: