Filmbol Forum Film İndir 720P v Ölümcül Sular (Crawl) Türkçe Dublaj BLURAY m720P İndir
Filmbol'da moderatör olmak ister misiniz? Bizimle iletişime geçmek için tıklayın!
Ölümcül Sular (Crawl) Türkçe Dublaj BLURAY m720P İndir
BroserBros
Ölümcül Sular (Crawl) Türkçe Dublaj BLURAY m720P İndir
6
610
  • Derecelendirme: 0/5 - 0 oy
  • 1
  • 2
  • 3
  • 4
  • 5
Konuyu Okuyanlar:2 Ziyaretçi
Şuan Online!
Filmin Yayınlanma Tarihi: 2019 
Şuan Online!
BroserBros Kurucu Admin
*******
Admin

indirme türü


Bulut + Premium

Vizyon Tarihi


12 Haziran 2019

Boyutlar


0,93

diller


[TR]

altyazilar


KISIM [Eklenebilir]

Video Format: Mkv


Matroska (.MKV)

Video Detay


MPEG-4, 1100 Kbps, 0,62 GB

imdb puanı


6,2 / 10,0 / 35,000

süre


87 dakika

Ses Kodek: AC3


Audio Coding 3 (AC3)

Ses Detay


384 Kbps, 6 Kanal, 240Mb

Editör Puanı


6,0

Genislik Yukseklik


1280-534

sürüm


x264 | 720P




Olumcul Sular


Film Detayları

Ölümcül Sular, şiddetli bir kasırgaya karşı yaşam savaşı veren genç bir kadının hikayesini konu ediyor. Florida’da 5. Kategorideki bir kasırga ile karşı karşıya kalan genç kadın, bölgedeki diğer sakinler gibi evini terk etme emrini yerine getirmemeye karar verir. Kasırga yaklaşırken botuna atlayıp kayıp olan babasını aramaya çıkar. Bölgeyi sel basmaya başladığında babasını ve köpeğini bulan genç kadın, yaralanmış olan babasını kurtarmaya çalışırken kendisini su altında kalan bir evin içinde bulur. Evin içine hapsolan baba-kız kısa süre sonra korkulması gereken tek şeyin kasırga ve seller olmadığını fark ederler. Azgın suların içinde devasa bir timsah sürüsü dolaşmaktadır. Baba kız, Florida'nın en vahşi ve korkulu avcılarına karşı kendini korumak için savaşmak zorundadırlar...

Ölümcül Sular (Crawl) Filmi Imdb'den 35,000 kişi tarafından oylandı ve 6,2 puan aldı. Bu film için editör puanı 6,0 olarak belirlendi. İyi Seyirler!


Teknik Detaylar

Kod :
General
Complete name                            : Ölümcül.Sular.2019.m720p.BLURAY.x264.TR.Filmbol.mkv
Format                                   : Matroska
Format version                           : Version 4 / Version 2
File size                                : 930 MiB
Duration                                 : 1h 27mn
Overall bit rate                         : 1 485 Kbps
Movie name                               : Ölümcül Sular (2019) - Filmbol.org
Encoded date                             : UTC 2019-10-31 00:52:10
Writing application                      : mkvmerge v35.0.0 ('All The Love In The World') 64-bit
Writing library                          : libebml v1.3.9 + libmatroska v1.5.2

Video
ID                                       : 1
Format                                   : AVC
Format/Info                              : Advanced Video Codec
Format profile                           : High@L4.1
Format settings, CABAC                   : Yes
Format settings, ReFrames                : 4 frames
Codec ID                                 : V_MPEG4/ISO/AVC
Duration                                 : 1h 27mn
Bit rate                                 : 1 100 Kbps
Width                                    : 1 280 pixels
Height                                   : 534 pixels
Display aspect ratio                     : 2.40:1
Original display aspect ratio            : 2.40:1
Frame rate mode                          : Constant
Frame rate                               : 23.976 (24000/1001) fps
Color space                              : YUV
Chroma subsampling                       : 4:2:0
Bit depth                                : 8 bits
Scan type                                : Progressive
Bits/(Pixel*Frame)                       : 0.067
Stream size                              : 688 MiB (74%)
Title                                    : 720P - Filmbol.org
Writing library                          : x264 core 158
Default                                  : Yes
Forced                                   : No

Audio
ID                                       : 2
Format                                   : AC-3
Format/Info                              : Audio Coding 3
Mode extension                           : CM (complete main)
Format settings, Endianness              : Big
Codec ID                                 : A_AC3
Duration                                 : 1h 27mn
Bit rate mode                            : Constant
Bit rate                                 : 384 Kbps
Channel(s)                               : 6 channels
Channel positions                        : Front: L C R, Side: L R, LFE
Sampling rate                            : 48.0 KHz
Frame rate                               : 31.250 fps (1536 spf)
Compression mode                         : Lossy
Stream size                              : 240 MiB (26%)
Title                                    : Türkçe - Filmbol.org
Language                                 : Turkish
Default                                  : Yes
Forced                                   : No

Text
ID                                       : 3
Format                                   : UTF-8
Codec ID                                 : S_TEXT/UTF8
Codec ID/Info                            : UTF-8 Plain Text
Duration                                 : 1h 26mn
Bit rate                                 : 0 bps
Count of elements                        : 13
Stream size                              : 368 Bytes (0%)
Title                                    : KISIM
Language                                 : Turkish
Default                                  : Yes
Forced                                   : Yes


Film Detayları


Olumcul Sular

Olumcul Sular

Olumcul Sular


Film Fragmanı


Film Detayları

Mini 720P İndir


Uptobox ile indir

LetsUpload ile indir

jpf1

Mega ile indir

MediaFire ile indir

Şuan Offine!
Şuan Offine!
firatcan141 Uzman Üye
**
Uzman Üye

  • Konular0
  • Mesajlar17
  • Rep puanı 0
waqt2512
Şuan Offine!
Şuan Offine!
yunuser34 Uzman Üye
**
Uzman Üye

  • Konular0
  • Mesajlar15
  • Rep puanı 0
Wiyyyyyyyy
Şuan Offine!
Şuan Offine!
kadirhan83 Uzman Üye
**
Uzman Üye

  • Konular0
  • Mesajlar14
  • Rep puanı 0
teşekkürler
Şuan Offine!
Şuan Offine!
gonenoya Süper Üye
***
Super Üye

  • Konular0
  • Mesajlar42
  • Rep puanı 0
llllllllllll
Şuan Offine!
Şuan Offine!
Onlyou83 Uzman Üye
**
Uzman Üye

  • Konular0
  • Mesajlar11
  • Rep puanı 0
Thank
Şuan Offine!
Şuan Offine!
Ahmet34 Süper Üye
***
Super Üye

  • Konular0
  • Mesajlar27
  • Rep puanı 0
efsane


Konu ile Alakalı Benzer Konular
Konular Yazar Yorumlar Okunma Son Yorum
Filmin Yayınlanma Tarihi: 2004
Harry Potter ve Azbakan Tutsağı (Prisoner of Azkaban) Türkçe Dublaj m720P İndir BroserBros 16 1,589 17-08-2020, Saat: 22:52
Son Yorum: xzxxx
Filmin Yayınlanma Tarihi: 2016
Lanetli Mesaj (Friend Request) Türkçe Dublaj m720P İndir BroserBros 2 1,555 29-07-2020, Saat: 14:11
Son Yorum: gurcan.d
Filmin Yayınlanma Tarihi: 2019
Shazam! 6 Güç Türkçe Dublaj Bluray m720P İndir BroserBros 3 814 18-05-2020, Saat: 19:03
Son Yorum: problemboy1
Filmin Yayınlanma Tarihi: 2019
The Silence (2019) Türkçe Dublaj BLURAY m720P İndir BroserBros 5 707 12-05-2020, Saat: 21:37
Son Yorum: Nizyy
Filmin Yayınlanma Tarihi: 2019
Godzilla 2: Canavarlar Kralı (King of the Monsters) Türkçe Dublaj BLURAY m720P İndir BroserBros 12 1,300 03-05-2020, Saat: 17:05
Son Yorum: jisiso5307

Hızlı Menü: