Filmbol Forum Film İndir 720P v Ölümcül Sular (Crawl) - 2019 - TR+ORG - 720P | tt8364368
Mega linklerinin şikayet edilmemesi için global erişime kapatıp sadece yorum yapanlara açıyoruz. Bu linkleri gizleme işlemini mecburen yapıyoruz ve yorum yapmanızın siteye değil size faydası vardır. Teşekürler yazmayı çok görüp, Random/Spam mesajlar atarak Mega linklerini açmaya çalışan kullanıcılara önce süresiz ban, devam ederse IP ban atacağız.
Filmbol'da moderatör olmak ister misiniz? Bizimle iletişime geçmek için tıklayın!
Ölümcül Sular (Crawl) - 2019 - TR+ORG - 720P | tt8364368
BroserBros
Ölümcül Sular (Crawl) - 2019 - TR+ORG - 720P | tt8364368
7
795
  • Derecelendirme: 0/5 - 0 oy
  • 1
  • 2
  • 3
  • 4
  • 5
Konuyu Okuyanlar:1 Ziyaretçi
Şuan Online!
Filmin Yayınlanma Tarihi: 2019 
WWW
Şuan Online!
BroserBros Kurucu Admin
*******
Admin










Başka bir sürüme mi bakmıştınız? İndirilebilir tüm sürümler için tıklayın.



 Ölümcül Sular



Ölümcül Sular, şiddetli bir kasırgaya karşı yaşam savaşı veren genç bir kadının hikayesini konu ediyor. Florida’da 5. Kategorideki bir kasırga ile karşı karşıya kalan genç kadın, bölgedeki diğer sakinler gibi evini terk etme emrini yerine getirmemeye karar verir. Kasırga yaklaşırken botuna atlayıp kayıp olan babasını aramaya çıkar. Bölgeyi sel basmaya başladığında babasını ve köpeğini bulan genç kadın, yaralanmış olan babasını kurtarmaya çalışırken kendisini su altında kalan bir evin içinde bulur. Evin içine hapsolan baba-kız kısa süre sonra korkulması gereken tek şeyin kasırga ve seller olmadığını fark ederler. Azgın suların içinde devasa bir timsah sürüsü dolaşmaktadır. Baba kız, Florida’nın en vahşi ve korkulu avcılarına karşı kendini korumak için savaşmak zorundadırlar…

Ölümcül Sular (2019) (Crawl) | tt8364368 Filmi Imdb'den 70,000 kişi tarafından oylandı ve 6,1 puan aldı. Bu film için editör puanı 6 olarak belirlendi. İyi Seyirler!

Teknik Detaylar

Kod :
General
Unique ID                                : 64403353493402259799405957290934768322 (0x3073A27BC6F5A7F382D2311ADF2192C2)
Complete name                            : /home/yunus/Desktop/4/Ölümcül.Sular.2019.720p.BluRay.x264.TR.ENG.Filmbol.mkv
Format                                   : Matroska
Format version                           : Version 4
File size                                : 1.10 GiB
Duration                                 : 1 h 27 min
Overall bit rate                         : 1 805 kb/s
Movie name                               : Ölümcül Sular - Crawl - 2019 | Filmbol.org
Encoded date                             : UTC 2021-02-15 12:53:15
Writing application                      : mkvmerge v53.0.0 ('Fool's Gold') 64-bit
Writing library                          : libebml v1.4.1 + libmatroska v1.6.2

Video
ID                                       : 1
Format                                   : AVC
Format/Info                              : Advanced Video Codec
Format profile                           : [email protected]
Format settings                          : CABAC / 4 Ref Frames
Format settings, CABAC                   : Yes
Format settings, Reference frames        : 4 frames
Codec ID                                 : V_MPEG4/ISO/AVC
Duration                                 : 1 h 27 min
Bit rate                                 : 1 100 kb/s
Width                                    : 1 280 pixels
Height                                   : 528 pixels
Display aspect ratio                     : 2.40:1
Original display aspect ratio            : 2.40:1
Frame rate mode                          : Constant
Frame rate                               : 23.976 (24000/1001) FPS
Color space                              : YUV
Chroma subsampling                       : 4:2:0
Bit depth                                : 8 bits
Scan type                                : Progressive
Bits/(Pixel*Frame)                       : 0.068
Stream size                              : 689 MiB (61%)
Title                                    : 720P - Filmbol.org
Writing library                          : x264 core 158
Encoding settings                        : cabac=1 / ref=4 / deblock=1:-1:-1 / analyse=0x3:0x133 / me=umh / subme=9 / psy=1 / psy_rd=1.00:0.15 / mixed_ref=1 / me_range=24 / chroma_me=1 / trellis=2 / 8x8dct=1 / cqm=0 / deadzone=21,11 / fast_pskip=0 / chroma_qp_offset=-3 / threads=16 / lookahead_threads=1 / sliced_threads=0 / nr=0 / decimate=1 / interlaced=0 / bluray_compat=0 / constrained_intra=0 / bframes=3 / b_pyramid=2 / b_adapt=2 / b_bias=0 / direct=3 / weightb=1 / open_gop=0 / weightp=2 / keyint=250 / keyint_min=23 / scenecut=40 / intra_refresh=0 / rc_lookahead=60 / rc=2pass / mbtree=1 / bitrate=1100 / ratetol=1.0 / qcomp=0.60 / qpmin=0 / qpmax=69 / qpstep=4 / cplxblur=20.0 / qblur=0.5 / vbv_maxrate=31250 / vbv_bufsize=31250 / nal_hrd=none / filler=0 / ip_ratio=1.40 / aq=1:1.00
Default                                  : Yes
Forced                                   : No

Audio #1
ID                                       : 2
Format                                   : AC-3
Format/Info                              : Audio Coding 3
Commercial name                          : Dolby Digital
Codec ID                                 : A_AC3
Duration                                 : 1 h 27 min
Bit rate mode                            : Constant
Bit rate                                 : 320 kb/s
Channel(s)                               : 6 channels
Channel layout                           : L R C LFE Ls Rs
Sampling rate                            : 48.0 kHz
Frame rate                               : 31.250 FPS (1536 SPF)
Compression mode                         : Lossy
Stream size                              : 200 MiB (18%)
Title                                    : İngilizce - Filmbol.org
Language                                 : English
Service kind                             : Complete Main
Default                                  : No
Forced                                   : No

Audio #2
ID                                       : 3
Format                                   : AC-3
Format/Info                              : Audio Coding 3
Commercial name                          : Dolby Digital
Codec ID                                 : A_AC3
Duration                                 : 1 h 27 min
Bit rate mode                            : Constant
Bit rate                                 : 384 kb/s
Channel(s)                               : 6 channels
Channel layout                           : L R C LFE Ls Rs
Sampling rate                            : 48.0 kHz
Frame rate                               : 31.250 FPS (1536 SPF)
Compression mode                         : Lossy
Delay relative to video                  : 1 s 24 ms
Stream size                              : 240 MiB (21%)
Title                                    : Türkçe - Filmbol.org
Language                                 : Turkish
Service kind                             : Complete Main
Default                                  : Yes
Forced                                   : Yes

Film Detayları


 Ölümcül Sular

 Ölümcül Sular

 Ölümcül Sular


Film Fragmanı


Film Detayları

Uptobox ile indir

1Fichier ile indir

1Fichier'den İndiremiyor musun? Tıklayın!


Mega linki şuan da gizli. Kullanıma açmak için konuya yorum yapın ve ardından sayfayı yenileyin.

Mega


Bunun için üzgünüz ancak, bu linke sadece premium üyeler erişebilir.

Filmbol Cloud





Başka bir sürüme mi bakmıştınız? İndirilebilir tüm sürümler için tıklayın.

Şuan Offine!
Şuan Offine!
firatcan141 Uzman Üye
**
Uzman Üye

  • Konular0
  • Mesajlar17
  • Rep puanı 0
waqt2512
Şuan Offine!
Şuan Offine!
yunuser34 Uzman Üye
**
Uzman Üye

  • Konular0
  • Mesajlar15
  • Rep puanı 0
Wiyyyyyyyy
Şuan Offine!
Şuan Offine!
kadirhan83 Uzman Üye
**
Uzman Üye

  • Konular0
  • Mesajlar14
  • Rep puanı 0
teşekkürler
Şuan Offine!
Şuan Offine!
gonenoya Süper Üye
***
Super Üye

  • Konular0
  • Mesajlar46
  • Rep puanı 0
llllllllllll
Şuan Offine!
Şuan Offine!
Onlyou83 Uzman Üye
**
Uzman Üye

  • Konular0
  • Mesajlar11
  • Rep puanı 0
Thank
Şuan Offine!
Şuan Offine!
Ahmet34 Süper Üye
***
Super Üye

  • Konular0
  • Mesajlar30
  • Rep puanı 0
efsane
Şuan Online!
Şuan Online!
BroserBros Kurucu Admin
*******
Admin

16.02.2021 Yönetici Notu:

Konu güncellendi. Kırık linkler kontrol edildi, kaldırıldı ve yenilendi. Tüm linkler tamamen çalışır durumda.


Konu ile Alakalı Benzer Konular
Konular Yazar Yorumlar Okunma Son Yorum
Filmin Yayınlanma Tarihi: 2020
Yarını Yokmuş Gibi (Palm Springs) - 2020 - TR+ORG - 720P | tt9484998 TheSteeL 0 7 23 dakika önce
Son Yorum: TheSteeL
Filmin Yayınlanma Tarihi: 2020
Polis (Police) - 2020 - TR+ORG - 720P | tt9850344 TheSteeL 0 7 36 dakika önce
Son Yorum: TheSteeL
Filmin Yayınlanma Tarihi: 2020
Her Zaman Şeytan (The Devil All the Time) - 2020 - TR+ORG - 720P | tt7395114 TheSteeL 0 55 03-03-2021, Saat: 21:36
Son Yorum: TheSteeL
Filmin Yayınlanma Tarihi: 2020
Baba Aranıyor (Se busca papá) - 2020 - TR+ORG - 720P | tt12721188 TheSteeL 0 55 03-03-2021, Saat: 21:12
Son Yorum: TheSteeL
Filmin Yayınlanma Tarihi: 2019
Beyaz Kentin Sessizliği (El silencio de la ciudad blanca) - 2019 - TR+ORG - 720P | tt8393332 BroserBros 1 265 03-03-2021, Saat: 15:38
Son Yorum: BroserBros

Hızlı Menü: