Filmbol Forum Film İndir BRRip XviD v Ölümcül Sular (Crawl) - 2019 - TR - BRRip XviD | tt8364368
Mega linklerinin şikayet edilmemesi için global erişime kapatıp sadece yorum yapanlara açıyoruz. Bu linkleri gizleme işlemini mecburen yapıyoruz ve yorum yapmanızın siteye değil size faydası vardır. Teşekürler yazmayı çok görüp, Random/Spam mesajlar atarak Mega linklerini açmaya çalışan kullanıcılara önce süresiz ban, devam ederse IP ban atacağız.
Filmbol'da moderatör olmak ister misiniz? Bizimle iletişime geçmek için tıklayın!
Ölümcül Sular (Crawl) - 2019 - TR - BRRip XviD | tt8364368
BroserBros
Ölümcül Sular (Crawl) - 2019 - TR - BRRip XviD | tt8364368
8
644
  • Derecelendirme: 5/5 - 1 oy
  • 1
  • 2
  • 3
  • 4
  • 5
Konuyu Okuyanlar:1 Ziyaretçi
Şuan Online!
Filmin Yayınlanma Tarihi: 2019 
WWW
Şuan Online!
BroserBros Kurucu Admin
*******
Admin










Başka bir sürüme mi bakmıştınız? İndirilebilir tüm sürümler için tıklayın.



 Ölümcül Sular



Ölümcül Sular, şiddetli bir kasırgaya karşı yaşam savaşı veren genç bir kadının hikayesini konu ediyor. Florida’da 5. Kategorideki bir kasırga ile karşı karşıya kalan genç kadın, bölgedeki diğer sakinler gibi evini terk etme emrini yerine getirmemeye karar verir. Kasırga yaklaşırken botuna atlayıp kayıp olan babasını aramaya çıkar. Bölgeyi sel basmaya başladığında babasını ve köpeğini bulan genç kadın, yaralanmış olan babasını kurtarmaya çalışırken kendisini su altında kalan bir evin içinde bulur. Evin içine hapsolan baba-kız kısa süre sonra korkulması gereken tek şeyin kasırga ve seller olmadığını fark ederler. Azgın suların içinde devasa bir timsah sürüsü dolaşmaktadır. Baba kız, Florida’nın en vahşi ve korkulu avcılarına karşı kendini korumak için savaşmak zorundadırlar…

Ölümcül Sular (2019) (Crawl) | tt8364368 Filmi Imdb'den 70,000 kişi tarafından oylandı ve 6,1 puan aldı. Bu film için editör puanı 6 olarak belirlendi. İyi Seyirler!

Teknik Detaylar

Kod :
General
Complete name                            : /home/yunus/Desktop/4/Ölümcül.Sular.2019.HDRip.XViD.TR.Filmbol.avi
Format                                   : AVI
Format/Info                              : Audio Video Interleave
File size                                : 702 MiB
Duration                                 : 1 h 27 min
Overall bit rate                         : 1 123 kb/s

Video
ID                                       : 0
Format                                   : MPEG-4 Visual
Format profile                           : Advanced [email protected]
Format settings                          : BVOP2
Format settings, BVOP                    : 2
Format settings, QPel                    : No
Format settings, GMC                     : No warppoints
Format settings, Matrix                  : Default (H.263)
Codec ID                                 : XVID
Codec ID/Hint                            : XviD
Duration                                 : 1 h 27 min
Bit rate                                 : 982 kb/s
Width                                    : 640 pixels
Height                                   : 272 pixels
Display aspect ratio                     : 2.35:1
Frame rate                               : 23.976 (24000/1001) FPS
Color space                              : YUV
Chroma subsampling                       : 4:2:0
Bit depth                                : 8 bits
Scan type                                : Progressive
Compression mode                         : Lossy
Bits/(Pixel*Frame)                       : 0.235
Stream size                              : 614 MiB (87%)
Writing library                          : XviD 67

Audio
ID                                       : 1
Format                                   : MPEG Audio
Format version                           : Version 1
Format profile                           : Layer 3
Codec ID                                 : 55
Codec ID/Hint                            : MP3
Duration                                 : 1 h 27 min
Bit rate mode                            : Constant
Bit rate                                 : 128 kb/s
Channel(s)                               : 2 channels
Sampling rate                            : 48.0 kHz
Compression mode                         : Lossy
Stream size                              : 80.0 MiB (11%)
Alignment                                : Aligned on interleaves
Interleave, duration                     : 24  ms (0.58 video frame)

Film Detayları


 Ölümcül Sular

 Ölümcül Sular

 Ölümcül Sular


Film Fragmanı


Film Detayları


Uptobox ile indir

1Fichier ile indir

1Fichier'den İndiremiyor musun? Tıklayın!


Mega linki şuan da gizli. Kullanıma açmak için konuya yorum yapın ve ardından sayfayı yenileyin.

Mega


Bunun için üzgünüz ancak, bu linke sadece premium üyeler erişebilir.

Filmbol Cloud





Başka bir sürüme mi bakmıştınız? İndirilebilir tüm sürümler için tıklayın.

Şuan Offine!
Şuan Offine!
komador06 Süper Üye
***
Super Üye

  • Konular0
  • Mesajlar28
  • Rep puanı 0
teşekkürler..
Şuan Offine!
Şuan Offine!
hayri40 Uzman Üye
**
Uzman Üye

  • Konular0
  • Mesajlar19
  • Rep puanı 0
Elinize sağlık
Şuan Offine!
Şuan Offine!
hayri40 Uzman Üye
**
Uzman Üye

  • Konular0
  • Mesajlar19
  • Rep puanı 0
Elinize sağlık
Şuan Online!
Şuan Online!
BroserBros Kurucu Admin
*******
Admin

Güncellendi
Şuan Online!
Şuan Online!
Furkan61 Süper Üye
***
Super Üye

  • Konular0
  • Mesajlar122
  • Rep puanı 1
(07-01-2020, Saat: 23:06)BroserBros Adlı Kullanıcıdan Alıntı: Güncellendi
harika film
Şuan Offine!
Şuan Offine!
yce09 Yeni Üye
*
Üye

  • Konular0
  • Mesajlar1
  • Rep puanı 0
Smile Smile Smile
Şuan Offine!
Şuan Offine!
sectechno Premium Üye
****

  • Konular10
  • Mesajlar96
  • Rep puanı 20
Teşekkürler BroserBros.İyi çalışmalar.
Şuan Online!
Şuan Online!
BroserBros Kurucu Admin
*******
Admin

16.02.2021 Yönetici Notu:

Konu güncellendi. Kırık linkler kontrol edildi, kaldırıldı ve yenilendi. Tüm linkler tamamen çalışır durumda.


Konu ile Alakalı Benzer Konular
Konular Yazar Yorumlar Okunma Son Yorum
Filmin Yayınlanma Tarihi: 2002
Akıl Oyunları (A Beautiful Mind) - 2001 - TR - BRRip XviD | tt0268978 BroserBros 2 243 4 saat önce
Son Yorum: Furkan61
  Her Zaman Şeytan (The Devil All the Time) - 2020 - TR - BRRip XviD | tt7395114 TheSteeL 1 43 4 saat önce
Son Yorum: Furkan61
Filmin Yayınlanma Tarihi: 2020
Baba Aranıyor (Se busca papá) - 2020 - TR - BRRip XviD | tt12721188 TheSteeL 0 32 , Saat: 21:12
Son Yorum: TheSteeL
Filmin Yayınlanma Tarihi: 1999
Yeşil Yol (The Green Mile) - 1999 - TR - BRRip XviD | tt0120689 BroserBros 2 250 , Saat: 15:54
Son Yorum: Furkan61
Filmin Yayınlanma Tarihi: 2019
Beyaz Kentin Sessizliği (El silencio de la ciudad blanca) - 2019 - TR - BRRip XviD | tt8393332 BroserBros 1 249 , Saat: 15:38
Son Yorum: BroserBros

Hızlı Menü: