Filmbol Forum Film İndir BRRip XviD v Ölümcül Dövüş Efsanesi: Akrebin İntikamı (Mortal Kombat) - 2020 - TR - BRRip XviD
Filmbol'da moderatör olmak ister misiniz? Bizimle iletişime geçmek için tıklayın!
Ölümcül Dövüş Efsanesi: Akrebin İntikamı (Mortal Kombat) - 2020 - TR - BRRip XviD
BroserBros
Ölümcül Dövüş Efsanesi: Akrebin İntikamı (Mortal Kombat) - 2020 - TR - BRRip XviD
0
141
  • Derecelendirme: 0/5 - 0 oy
  • 1
  • 2
  • 3
  • 4
  • 5
Konuyu Okuyanlar:1 Ziyaretçi
Şuan Online!
Filmin Yayınlanma Tarihi: 2020 
Şuan Online!
BroserBros Kurucu Admin
*******
Admin

Vizyon Tarihi


12 Nisan 2020

imdb puanı


7,6 / 3,000

süre


80 dakika

Editör Puanı


6,5 / 10

Video Format: Avi


Audio Video Interleave (.AVI)

Ses Kodek: MP3


MPEG-1 Audio Layer III (MP3)

sürüm


h263 | HDRip XviD

Boyutlar


0,99 GB



 Ölümcül Dövüş Efsanesi: Akrebin İntikamı



Mortal Kombat serisinin oyunlarını dumuşsunuzdur. Eğer oyununu beğeniyorsanız bu filmi de beğeneceğinizden eminiz. Ölümcül Dövüş Efsanesi bir animasyon filmidir ve mortal kombat oyununun sinemaya uyalanmış halidir.

Ölümcül Dövüş Efsanesi: Akrebin İntikamı (2020) (Mortal Kombat Legends: Scorpions Revenge) Filmi Imdb'den 3,000 kişi tarafından oylandı ve 7,6 puan aldı. Bu film için editör puanı 6,5 olarak belirlendi. İyi Seyirler!

Teknik Detaylar

Kod :
General
Complete name                            : /root/Desktop/2/Ölümcül.Dövüş.Efsanesi.Akrebin.İntikamı.2020.HDRip.XViD.TR.Filmbol.avi
Format                                  : AVI
Format/Info                              : Audio Video Interleave
File size                                : 995 MiB
Duration                                : 1h 20mn
Overall bit rate                        : 1 737 Kbps

Video
ID                                      : 0
Format                                  : MPEG-4 Visual
Format profile                          : Simple@L5
Format settings, BVOP                    : No
Format settings, QPel                    : No
Format settings, GMC                    : No warppoints
Format settings, Matrix                  : Default (H.263)
Codec ID                                : XVID
Codec ID/Hint                            : XviD
Duration                                : 1h 20mn
Bit rate                                : 1 596 Kbps
Width                                    : 720 pixels
Height                                  : 400 pixels
Display aspect ratio                    : 16:9
Frame rate                              : 23.976 fps
Color space                              : YUV
Chroma subsampling                      : 4:2:0
Bit depth                                : 8 bits
Scan type                                : Progressive
Compression mode                        : Lossy
Bits/(Pixel*Frame)                      : 0.231
Stream size                              : 914 MiB (92%)
Writing library                          : Lavc58.35.100

Audio
ID                                      : 1
Format                                  : MPEG Audio
Format version                          : Version 1
Format profile                          : Layer 3
Mode                                    : Joint stereo
Mode extension                          : MS Stereo
Codec ID                                : 55
Codec ID/Hint                            : MP3
Duration                                : 1h 19mn
Bit rate mode                            : Constant
Bit rate                                : 128 Kbps
Channel(s)                              : 2 channels
Sampling rate                            : 48.0 KHz
Compression mode                        : Lossy
Stream size                              : 73.2 MiB (7%)
Alignment                                : Aligned on interleaves
Interleave, duration                    : 24 ms (0.58 video frame)

Film Detayları


 Ölümcül Dövüş Efsanesi: Akrebin İntikamı

 Ölümcül Dövüş Efsanesi: Akrebin İntikamı

 Ölümcül Dövüş Efsanesi: Akrebin İntikamı


Film Fragmanı


Film Detayları


Uptobox ile indir

1Fichier ile indir

1Fichier'den İndiremiyor musun? Tıklayın!


Mega ile indir

Bunun için üzgünüz ancak, bu linke sadece premium üyeler erişebilir.

Filmbol Cloud



Konu ile Alakalı Benzer Konular
Konular Yazar Yorumlar Okunma Son Yorum
Filmin Yayınlanma Tarihi: 2020
Aşka İnan (I Still Believe) - 2020 - TR - BRRip XviD BroserBros 0 2 50 dakika önce
Son Yorum: BroserBros
Filmin Yayınlanma Tarihi: 2018
Döndüm Ben (Yerli) - 2018 - TR - BRRip XviD BroserBros 0 24 , Saat: 18:40
Son Yorum: BroserBros
Filmin Yayınlanma Tarihi: 2018
Bana Bir Soygun Yaz 2 (Yerli) - 2018 - TR - BRRip XviD BroserBros 0 25 , Saat: 18:26
Son Yorum: BroserBros
Filmin Yayınlanma Tarihi: 2007
Amerikan Pastası 6: Beta Evi (American Pie: Beta House) - 2007 - TR - BRRip XviD BroserBros 2 247 , Saat: 14:31
Son Yorum: tayyib5731
Filmin Yayınlanma Tarihi: 2005
Amerikan Pastası 4 (Bando Takımı) (American Pie Band Camp) Türkçe Dublaj BRRip XviD BroserBros 2 334 , Saat: 14:30
Son Yorum: tayyib5731

Hızlı Menü: