Filmbol Forum Film İndir 720P v Ölümcül Dövüş Efsanesi: Akrebin İntikamı (Mortal Kombat) - 2020 - TR - 720P
Moderatör Alımları Başladı! Başvuru yapmak için tıklayın.
Filmbol Premium'da %50'e varan indirim fırsatı!
Ölümcül Dövüş Efsanesi: Akrebin İntikamı (Mortal Kombat) - 2020 - TR - 720P
BroserBros
Ölümcül Dövüş Efsanesi: Akrebin İntikamı (Mortal Kombat) - 2020 - TR - 720P
0
95
  • Derecelendirme: 0/5 - 0 oy
  • 1
  • 2
  • 3
  • 4
  • 5
Konuyu Okuyanlar:1 Ziyaretçi
Şuan Online!
Filmin Yayınlanma Tarihi: 2020 
Şuan Online!
BroserBros Kurucu Admin
*******
Admin

Vizyon Tarihi


12 Nisan 2020

imdb puanı


7,6 / 3,000

süre


80 dakika

Editör Puanı


6,5 / 10

Video Format: Mkv


Matroska (.MKV)

Ses Kodek: AC3


Audio Coding 3 (AC3)

sürüm


x264 | 720P | BLURAY

Boyutlar


0,76 GB



 Ölümcül Dövüş Efsanesi: Akrebin İntikamı



Mortal Kombat serisinin oyunlarını dumuşsunuzdur. Eğer oyununu beğeniyorsanız bu filmi de beğeneceğinizden eminiz. Ölümcül Dövüş Efsanesi bir animasyon filmidir ve mortal kombat oyununun sinemaya uyalanmış halidir.

Ölümcül Dövüş Efsanesi: Akrebin İntikamı (2020) (Mortal Kombat Legends: Scorpions Revenge) Filmi Imdb'den 3,000 kişi tarafından oylandı ve 7,6 puan aldı. Bu film için editör puanı 6,5 olarak belirlendi. İyi Seyirler!

Teknik Detaylar

Kod :
General
Unique ID                                : 309373087300606689757135405349617421314 (0xE8BF16DB2F012613F8C6E19D99F64C02)
Complete name                            : /root/Desktop/2/Ölümcül.Dövüş.Efsanesi.Akrebin.İntikamı.2020.720p.WEB-DL.x264.TR.Filmbol.mkv
Format                                  : Matroska
Format version                          : Version 4 / Version 2
File size                                : 769 MiB
Duration                                : 1h 20mn
Overall bit rate                        : 1 343 Kbps
Movie name                              : Olümcül Dövüş Efsanesi: Akrebin İntikamı (2020) -  Filmbol.org
Encoded date                            : UTC 2020-04-16 07:31:17
Writing application                      : mkvmerge v8.8.0 ('Wind at my back') 64bit
Writing library                          : libebml v1.3.3 + libmatroska v1.4.4

Video
ID                                      : 1
Format                                  : AVC
Format/Info                              : Advanced Video Codec
Format profile                          : High@L4.1
Format settings, CABAC                  : Yes
Format settings, ReFrames                : 4 frames
Codec ID                                : V_MPEG4/ISO/AVC
Duration                                : 1h 20mn
Bit rate                                : 1 150 Kbps
Width                                    : 1 280 pixels
Height                                  : 714 pixels
Display aspect ratio                    : 16:9
Frame rate mode                          : Constant
Frame rate                              : 23.976 (24000/1001) fps
Color space                              : YUV
Chroma subsampling                      : 4:2:0
Bit depth                                : 8 bits
Scan type                                : Progressive
Bits/(Pixel*Frame)                      : 0.052
Stream size                              : 659 MiB (86%)
Title                                    : 720P - Filmbol.org
Writing library                          : x264 core 158
Encoding settings                        : cabac=1 / ref=4 / deblock=1:-1:-1 / analyse=0x3:0x133 / me=umh / subme=9 / psy=1 / psy_rd=1.00:0.15 / mixed_ref=1 / me_range=24 / chroma_me=1 / trellis=2 / 8x8dct=1 / cqm=0 / deadzone=21,11 / fast_pskip=0 / chroma_qp_offset=-3 / threads=18 / lookahead_threads=1 / sliced_threads=0 / nr=0 / decimate=1 / interlaced=0 / bluray_compat=0 / constrained_intra=0 / bframes=3 / b_pyramid=2 / b_adapt=2 / b_bias=0 / direct=3 / weightb=1 / open_gop=0 / weightp=2 / keyint=250 / keyint_min=23 / scenecut=40 / intra_refresh=0 / rc_lookahead=60 / rc=2pass / mbtree=1 / bitrate=1150 / ratetol=1.0 / qcomp=0.60 / qpmin=0 / qpmax=69 / qpstep=4 / cplxblur=20.0 / qblur=0.5 / vbv_maxrate=31250 / vbv_bufsize=31250 / nal_hrd=none / filler=0 / ip_ratio=1.40 / aq=1:1.00
Default                                  : Yes
Forced                                  : No

Audio
ID                                      : 2
Format                                  : AC-3
Format/Info                              : Audio Coding 3
Mode extension                          : CM (complete main)
Format settings, Endianness              : Big
Codec ID                                : A_AC3
Duration                                : 1h 19mn
Bit rate mode                            : Constant
Bit rate                                : 192 Kbps
Channel(s)                              : 2 channels
Channel positions                        : Front: L R
Sampling rate                            : 48.0 KHz
Frame rate                              : 31.250 fps (1536 spf)
Compression mode                        : Lossy
Stream size                              : 110 MiB (14%)
Title                                    : Türkçe
Language                                : Turkish
Default                                  : Yes
Forced                                  : No

Film Detayları


 Ölümcül Dövüş Efsanesi: Akrebin İntikamı

 Ölümcül Dövüş Efsanesi: Akrebin İntikamı

 Ölümcül Dövüş Efsanesi: Akrebin İntikamı


Film Fragmanı


Film Detayları

Uptobox ile indir

1Fichier ile indir

1Fichier'den İndiremiyor musun? Tıklayın!


Mega ile indir

Bunun için üzgünüz ancak, bu linke sadece premium üyeler erişebilir.

Filmbol Cloud



Konu ile Alakalı Benzer Konular
Konular Yazar Yorumlar Okunma Son Yorum
Filmin Yayınlanma Tarihi: 2014
Lego Filmi (The Lego Movie) - 2014 - TR+ORG - 720P BroserBros 0 19 11 saat önce
Son Yorum: BroserBros
Filmin Yayınlanma Tarihi: 2014
Nuh: Büyük Tufan (Noah) - 2014 - TR+ORG - 720P BroserBros 0 20 11 saat önce
Son Yorum: BroserBros
Filmin Yayınlanma Tarihi: 2014
Yarının Sınırında (Edge of Tomorrow) - 2014 - TR+ORG - 720P BroserBros 0 39 , Saat: 20:41
Son Yorum: BroserBros
Filmin Yayınlanma Tarihi: 2014
300: Bir İmparatorluğun Yükselişi (300: Rise of an Empire - 300 Spartalı 2) - 2014 - TR+ORG - 720P BroserBros 0 61 04-06-2020, Saat: 13:39
Son Yorum: BroserBros
Filmin Yayınlanma Tarihi: 2020
Kirpi Sonic (Sonic the Hedgehog) - 2020 - TR+ORG - 720P BroserBros 0 63 04-06-2020, Saat: 12:57
Son Yorum: BroserBros

Hızlı Menü: