Hoşgeldin, Ziyaretçi: Giriş Yap Üye Ol


Konuyu Oyla:
  • Derecelendirme: 0/5 - 0 oy
  • 1
  • 2
  • 3
  • 4
  • 5
Title: Ölümcül Bulmaca (A Puzzle to Die For) Türkçe Dublaj BRRip XviD indir
Gösterim Stili
#1
Filmin Yayınlanma Tarihi: 2019 

vizyon tarihi


10 Mart 2019

imdb puanı


6,7 / 1,000

süre


120 dakika

Editör Puanı


5,8 / 10

Video Format: Avi


Audio Video Interleave (.AVI)

Ses Kodek: MP3


MPEG-1 Audio Layer III (MP3)

sürüm


h263 | BRRip XviD

Boyutlar


0,99



 Ölümcül Bulmaca



Bir sanat galerisi soyulur ve sahibi öldürülür. Sahibinin cebinden bir bulmaca bulunur. Tess, bir bulmaca editorudür ve bulmacalar konusunda bilgilidir. Tess bulmayacı çözmeye başlar ve bazı ipuçları bulur. Daha sonra, dedektif Logan ile ipuçlarını çözmeye başlarlar....

Ölümcül Bulmaca (2019) (A Puzzle to Die For) Filmi Imdb'den 1,000 kişi tarafından oylandı ve 6,7 puan aldı. Bu film için editör puanı 5,8 olarak belirlendi. İyi Seyirler!

Teknik Detaylar

Kod:
General
Complete name                            : /root/Desktop/2/ölümcül.Bulmaca.2019.HDRip.XViD.TR.Filmbol.avi
Format                                   : AVI
Format/Info                              : Audio Video Interleave
File size                                : 997 MiB
Duration                                 : 1h 24mn
Overall bit rate                         : 1 652 Kbps

Video
ID                                       : 0
Format                                   : MPEG-4 Visual
Format profile                           : Advanced Simple@L5
Format settings, BVOP                    : 2
Format settings, QPel                    : No
Format settings, GMC                     : No warppoints
Format settings, Matrix                  : Default (MPEG)
Codec ID                                 : XVID
Codec ID/Hint                            : XviD
Duration                                 : 1h 24mn
Bit rate                                 : 1 510 Kbps
Width                                    : 720 pixels
Height                                   : 404 pixels
Display aspect ratio                     : 16:9
Frame rate                               : 23.976 (23976/1000) fps
Color space                              : YUV
Chroma subsampling                       : 4:2:0
Bit depth                                : 8 bits
Scan type                                : Progressive
Compression mode                         : Lossy
Bits/(Pixel*Frame)                       : 0.217
Stream size                              : 912 MiB (91%)
Writing library                          : XviD 64

Audio
ID                                       : 1
Format                                   : MPEG Audio
Format version                           : Version 1
Format profile                           : Layer 3
Mode                                     : Joint stereo
Mode extension                           : MS Stereo
Codec ID                                 : 55
Codec ID/Hint                            : MP3
Duration                                 : 1h 24mn
Bit rate mode                            : Constant
Bit rate                                 : 128 Kbps
Channel(s)                               : 2 channels
Sampling rate                            : 48.0 KHz
Compression mode                         : Lossy
Stream size                              : 77.3 MiB (8%)
Alignment                                : Aligned on interleaves
Interleave, duration                     : 24 ms (0.58 video frame)

Film Detayları


 Ölümcül Bulmaca

 Ölümcül Bulmaca

 Ölümcül Bulmaca


Film Fragmanı


Film Detayları


Uptobox ile indir

1Fichier ile indir

Mega linki şuan da gizli. Kullanıma açmak için konuya yorum yapın ve ardından sayfayı yenileyin. Ayrıca bu linki açtığınızda reklamsız olarak erişebileceğinizi unutmayın.

Mega


Mediafire linki şuan da gizli. Kullanıma açmak için konuya yorum yapın ve ardından sayfayı yenileyin. Ayrıca bu linki açtığınızda reklamsız olarak erişebileceğinizi unutmayın.

Mediafire

 
Cevapla
  


Konu ile Alakalı Benzer Konular
Konular Yazar Yorumlar Okunma Son Yorum
Filmin Yayınlanma Tarihi: 2019 Sahtekar (The Good Liar) Türkçe Dublaj BRRip XviD indir BroserBros 1 29 , Saat: 18:27
Son Yorum: ismahilo
Filmin Yayınlanma Tarihi: 2016 Suçlu (Criminal) Türkçe Dublaj Brrip-Xvid İndir BroserBros 1 1,111 12-02-2020, Saat: 17:18
Son Yorum: Efsane1905
Filmin Yayınlanma Tarihi: 2019 Uncut Gems (2019) Türkçe Dublaj BRRip XviD İndir BroserBros 2 65 10-02-2020, Saat: 23:08
Son Yorum: mandol
Filmin Yayınlanma Tarihi: 2015 Polis Arabası (Cop Car) Türkçe Dublaj BRRip XviD İndir BroserBros 0 74 03-02-2020, Saat: 19:06
Son Yorum: BroserBros
Filmin Yayınlanma Tarihi: 2016 Kod 999 (Triple 9) Türkçe Dublaj Brrip-Xvid İndir BroserBros 1 926 30-01-2020, Saat: 15:23
Son Yorum: İgor

Hızlı Menü:


Browsing: 1 Ziyaretçi