Filmbol Forum Film İndir BRRip XviD v Ölümcül Bulmaca (A Puzzle to Die For) Türkçe Dublaj BRRip XviD indir
Moderatör Alımları Başladı! Başvuru yapmak için tıklayın.
Filmbol Premium'da %50'e varan indirim fırsatı!
Ölümcül Bulmaca (A Puzzle to Die For) Türkçe Dublaj BRRip XviD indir
BroserBros
Ölümcül Bulmaca (A Puzzle to Die For) Türkçe Dublaj BRRip XviD indir
0
148
  • Derecelendirme: 0/5 - 0 oy
  • 1
  • 2
  • 3
  • 4
  • 5
Konuyu Okuyanlar:1 Ziyaretçi
Şuan Online!
Filmin Yayınlanma Tarihi: 2019 
Şuan Online!
BroserBros Kurucu Admin
*******
Admin

Vizyon Tarihi


10 Mart 2019

imdb puanı


6,7 / 1,000

süre


120 dakika

Editör Puanı


5,8 / 10

Video Format: Avi


Audio Video Interleave (.AVI)

Ses Kodek: MP3


MPEG-1 Audio Layer III (MP3)

sürüm


h263 | BRRip XviD

Boyutlar


0,99



 Ölümcül Bulmaca



Bir sanat galerisi soyulur ve sahibi öldürülür. Sahibinin cebinden bir bulmaca bulunur. Tess, bir bulmaca editorudür ve bulmacalar konusunda bilgilidir. Tess bulmayacı çözmeye başlar ve bazı ipuçları bulur. Daha sonra, dedektif Logan ile ipuçlarını çözmeye başlarlar....

Ölümcül Bulmaca (2019) (A Puzzle to Die For) Filmi Imdb'den 1,000 kişi tarafından oylandı ve 6,7 puan aldı. Bu film için editör puanı 5,8 olarak belirlendi. İyi Seyirler!

Teknik Detaylar

Kod :
General
Complete name                            : /root/Desktop/2/ölümcül.Bulmaca.2019.HDRip.XViD.TR.Filmbol.avi
Format                                   : AVI
Format/Info                              : Audio Video Interleave
File size                                : 997 MiB
Duration                                 : 1h 24mn
Overall bit rate                         : 1 652 Kbps

Video
ID                                       : 0
Format                                   : MPEG-4 Visual
Format profile                           : Advanced Simple@L5
Format settings, BVOP                    : 2
Format settings, QPel                    : No
Format settings, GMC                     : No warppoints
Format settings, Matrix                  : Default (MPEG)
Codec ID                                 : XVID
Codec ID/Hint                            : XviD
Duration                                 : 1h 24mn
Bit rate                                 : 1 510 Kbps
Width                                    : 720 pixels
Height                                   : 404 pixels
Display aspect ratio                     : 16:9
Frame rate                               : 23.976 (23976/1000) fps
Color space                              : YUV
Chroma subsampling                       : 4:2:0
Bit depth                                : 8 bits
Scan type                                : Progressive
Compression mode                         : Lossy
Bits/(Pixel*Frame)                       : 0.217
Stream size                              : 912 MiB (91%)
Writing library                          : XviD 64

Audio
ID                                       : 1
Format                                   : MPEG Audio
Format version                           : Version 1
Format profile                           : Layer 3
Mode                                     : Joint stereo
Mode extension                           : MS Stereo
Codec ID                                 : 55
Codec ID/Hint                            : MP3
Duration                                 : 1h 24mn
Bit rate mode                            : Constant
Bit rate                                 : 128 Kbps
Channel(s)                               : 2 channels
Sampling rate                            : 48.0 KHz
Compression mode                         : Lossy
Stream size                              : 77.3 MiB (8%)
Alignment                                : Aligned on interleaves
Interleave, duration                     : 24 ms (0.58 video frame)

Film Detayları


 Ölümcül Bulmaca

 Ölümcül Bulmaca

 Ölümcül Bulmaca


Film Fragmanı


Film Detayları


Uptobox ile indir

1Fichier ile indir

1Fichier'den İndiremiyor musun? Tıklayın!


Mega ile indir

MediaFire ile indir



Konu ile Alakalı Benzer Konular
Konular Yazar Yorumlar Okunma Son Yorum
Filmin Yayınlanma Tarihi: 2014
Lucy (2014) Türkçe Dublaj BRRip XviD İndir BroserBros 1 262 19-09-2020, Saat: 00:56
Son Yorum: sectechno
Filmin Yayınlanma Tarihi: 2020
The Hunt (Av) - 2020 - TR - BRRip XviD BroserBros 0 312 18-09-2020, Saat: 19:28
Son Yorum: BroserBros
Filmin Yayınlanma Tarihi: 2018
Gözbebeğim (Pupille) - 2018 - TR - BRRip XviD BroserBros 0 312 18-09-2020, Saat: 13:02
Son Yorum: BroserBros
Filmin Yayınlanma Tarihi: 2019
Umut Vadisi (Hope Gap) - 2019 - TR - BRRip XviD BroserBros 0 313 18-09-2020, Saat: 12:50
Son Yorum: BroserBros
Filmin Yayınlanma Tarihi: 2019
Cep Herkülü: Naim Süleymanoğlu (Cep Herkülü: Naim Süleymanoğlu) - 2019 - TR - BRRip XviD BroserBros 0 114 15-09-2020, Saat: 21:51
Son Yorum: BroserBros

Hızlı Menü: