Hoşgeldin, Ziyaretçi: Giriş Yap Üye Ol


Konuyu Oyla:
  • Derecelendirme: 0/5 - 0 oy
  • 1
  • 2
  • 3
  • 4
  • 5
Title: Ölümcül Bulmaca (A Puzzle to Die For) Türkçe Dublaj BLURAY 1080P indir
Gösterim Stili
#1
Filmin Yayınlanma Tarihi: 2019 

vizyon tarihi


10 Mart 2019

imdb puanı


6,7 / 1,000

süre


120 dakika

Editör Puanı


5,8 / 10

Video Format: Mkv


Matroska (.MKV)

Ses Kodek: AC3


Audio Coding 3 (AC3)

sürüm


x264 | 1080P | WEB-DL

Boyutlar


1,41



 Ölümcül Bulmaca



Bir sanat galerisi soyulur ve sahibi öldürülür. Sahibinin cebinden bir bulmaca bulunur. Tess, bir bulmaca editorudür ve bulmacalar konusunda bilgilidir. Tess bulmayacı çözmeye başlar ve bazı ipuçları bulur. Daha sonra, dedektif Logan ile ipuçlarını çözmeye başlarlar....

Ölümcül Bulmaca (2019) (A Puzzle to Die For) Filmi Imdb'den 1,000 kişi tarafından oylandı ve 6,7 puan aldı. Bu film için editör puanı 5,8 olarak belirlendi. İyi Seyirler!

Teknik Detaylar

Kod:
General
Unique ID                                : 113934716463446813770984999323132643227 (0x55B707390C19765E5E4B8D48FA3A479B)
Complete name                            : /root/Desktop/2/Ölümcül.Bulmaca.2019.1080p.WEB-DL.x264.TR.Filmbol.mkv
Format                                   : Matroska
Format version                           : Version 4 / Version 2
File size                                : 1.41 GiB
Duration                                 : 1h 24mn
Overall bit rate                         : 2 386 Kbps
Movie name                               : Ölümcül Bulmaca (2019) - Filmbol.org
Encoded date                             : UTC 2020-02-14 07:49:04
Writing application                      : mkvmerge v35.0.0 ('All The Love In The World') 64-bit
Writing library                          : libebml v1.3.9 + libmatroska v1.5.2

Video
ID                                       : 1
Format                                   : AVC
Format/Info                              : Advanced Video Codec
Format profile                           : Main@L4
Format settings, CABAC                   : Yes
Format settings, ReFrames                : 2 frames
Codec ID                                 : V_MPEG4/ISO/AVC
Duration                                 : 1h 24mn
Bit rate                                 : 2 192 Kbps
Width                                    : 1 920 pixels
Height                                   : 1 080 pixels
Display aspect ratio                     : 16:9
Frame rate mode                          : Constant
Frame rate                               : 23.976 (24000/1001) fps
Color space                              : YUV
Chroma subsampling                       : 4:2:0
Bit depth                                : 8 bits
Scan type                                : Progressive
Bits/(Pixel*Frame)                       : 0.044
Stream size                              : 1.29 GiB (92%)
Title                                    : 1080P - Filmbol.org
Language                                 : English
Default                                  : Yes
Forced                                   : No

Audio
ID                                       : 2
Format                                   : AC-3
Format/Info                              : Audio Coding 3
Mode extension                           : CM (complete main)
Format settings, Endianness              : Big
Codec ID                                 : A_AC3
Duration                                 : 1h 24mn
Bit rate mode                            : Constant
Bit rate                                 : 192 Kbps
Channel(s)                               : 2 channels
Channel positions                        : Front: L R
Sampling rate                            : 48.0 KHz
Frame rate                               : 31.250 fps (1536 spf)
Compression mode                         : Lossy
Stream size                              : 116 MiB (8%)
Title                                    : Türkçe - Filmbol.org
Language                                 : Turkish
Default                                  : Yes
Forced                                   : Yes

Film Detayları


 Ölümcül Bulmaca

 Ölümcül Bulmaca

 Ölümcül Bulmaca


Film Fragmanı


Film Detayları

Uptobox ile indir

1Fichier ile indir

Mega linki şuan da gizli. Kullanıma açmak için konuya yorum yapın ve ardından sayfayı yenileyin. Ayrıca bu linki açtığınızda reklamsız olarak erişebileceğinizi unutmayın.

Mega


Mediafire linki şuan da gizli. Kullanıma açmak için konuya yorum yapın ve ardından sayfayı yenileyin. Ayrıca bu linki açtığınızda reklamsız olarak erişebileceğinizi unutmayın.

Mediafire

 
Cevapla
#2
teşekkürler
 
Cevapla
  


Konu ile Alakalı Benzer Konular
Konular Yazar Yorumlar Okunma Son Yorum
Filmin Yayınlanma Tarihi: 2019 Sahtekar (The Good Liar) Türkçe Dublaj BLURAY 1080P indir BroserBros 0 39 13-02-2020, Saat: 18:35
Son Yorum: BroserBros
Filmin Yayınlanma Tarihi: 2019 Uncut Gems (2019) Türkçe Dublaj BLURAY 1080P İndir BroserBros 2 65 09-02-2020, Saat: 15:26
Son Yorum: Haylaz53
Filmin Yayınlanma Tarihi: 2015 Sicario (Sicario) Türkçe Dublaj 1080P İndir BroserBros 3 1,738 04-02-2020, Saat: 15:51
Son Yorum: mrtpmk
Filmin Yayınlanma Tarihi: 2015 Polis Arabası (Cop Car) Türkçe Dublaj BLURAY 1080P İndir BroserBros 0 72 03-02-2020, Saat: 19:06
Son Yorum: BroserBros
Filmin Yayınlanma Tarihi: 2016 Suikast (Mechanic: Resurrection) Türkçe Dublaj 1080P İndir BroserBros 2 1,226 07-01-2020, Saat: 20:46
Son Yorum: Polatemirhan

Hızlı Menü:


Browsing: 1 Ziyaretçi