Hoşgeldin, Ziyaretçi: Giriş Yap Üye Ol


Konuyu Oyla:
  • Derecelendirme: 0/5 - 0 oy
  • 1
  • 2
  • 3
  • 4
  • 5
Title: Ölüm Alfabesi (Ouija) Türkçe Dublaj BRRip XviD indir
Gösterim Stili
#1
Filmin Yayınlanma Tarihi: 2014 

vizyon tarihi


28 Kasım 2014

imdb puanı


4,5 / 50,000

süre


89 dakika

Editör Puanı


5,5 / 10

Video Format: Avi


Audio Video Interleave (.AVI)

Ses Kodek: MP3


MPEG-1 Audio Layer III (MP3)

sürüm


h263 | DVDRip

Boyutlar


0,70



 Ölüm Alfabesi



Debbie, video günlük tutan bir genç kızdır. Bir gün evlerinde bir oyun bulur. Üzerinde Ouija yazan bu tahtanın üzerinde harfler ve "evet" "hayır" seçenekleri vardır. Oyunu bulmasıyla birlikte evde tuhaf şeyler olmaya başlar. Genç kız evinde asılmış olarak bulunur. En iyi arkadaşının ölümünü bir türlü kabullenemeyen Laine, onunla bir şekilde yeniden iletişim kurmak ister. Yakın arkadaşlarıyla gizemi çözmek için bu Ouija'yı araştırmaya başlarlar, ancak Debbie, tahtaya bakarken kötücül güçleri uyandırmıştır ve arkadaşları da büyük bir tehlike altındadır. Durdurmak içinse artık çok geçtir.
Stiles White'ın ilk yönetmenlik deneyimini gerçekleştirdiği filmin başrollerini Olivia Cooke, Ana Coto, Daren Kagasoff gibi isimler paylaşıyor.

Ölüm Alfabesi (2014) (Ouija) Filmi Imdb'den 50,000 kişi tarafından oylandı ve 4,5 puan aldı. Bu film için editör puanı 5,5 olarak belirlendi. İyi Seyirler!

Teknik Detaylar

Kod:
General
Complete name                            : /root/Desktop/6/Olum.Alfabesi.2014.DVDRip.XviD.TR.Filmbol.avi
Format                                   : AVI
Format/Info                              : Audio Video Interleave
File size                                : 700 MiB
Duration                                 : 1h 29mn
Overall bit rate                         : 1 094 Kbps

Video
ID                                       : 0
Format                                   : MPEG-4 Visual
Format profile                           : Advanced Simple@L5
Format settings, BVOP                    : 2
Format settings, QPel                    : No
Format settings, GMC                     : No warppoints
Format settings, Matrix                  : Default (H.263)
Codec ID                                 : XVID
Codec ID/Hint                            : XviD
Duration                                 : 1h 29mn
Bit rate                                 : 953 Kbps
Width                                    : 720 pixels
Height                                   : 304 pixels
Display aspect ratio                     : 2.35:1
Frame rate                               : 23.976 (23976/1000) fps
Color space                              : YUV
Chroma subsampling                       : 4:2:0
Bit depth                                : 8 bits
Scan type                                : Progressive
Compression mode                         : Lossy
Bits/(Pixel*Frame)                       : 0.182
Stream size                              : 610 MiB (87%)
Writing library                          : XviD 65

Audio
ID                                       : 1
Format                                   : MPEG Audio
Format version                           : Version 1
Format profile                           : Layer 3
Codec ID                                 : 55
Codec ID/Hint                            : MP3
Duration                                 : 1h 29mn
Bit rate mode                            : Constant
Bit rate                                 : 128 Kbps
Channel(s)                               : 2 channels
Sampling rate                            : 48.0 KHz
Compression mode                         : Lossy
Stream size                              : 81.8 MiB (12%)
Alignment                                : Aligned on interleaves
Interleave, duration                     : 24 ms (0.58 video frame)

Film Detayları


 Ölüm Alfabesi

 Ölüm Alfabesi

 Ölüm Alfabesi


Film Fragmanı


Film Detayları


Uptobox ile indir

1Fichier ile indir

Mega linki şuan da gizli. Kullanıma açmak için konuya yorum yapın ve ardından sayfayı yenileyin. Ayrıca bu linki açtığınızda reklamsız olarak erişebileceğinizi unutmayın.

Mega


Mediafire linki şuan da gizli. Kullanıma açmak için konuya yorum yapın ve ardından sayfayı yenileyin. Ayrıca bu linki açtığınızda reklamsız olarak erişebileceğinizi unutmayın.

Mediafire

 
Cevapla
#2
ÇOK TEŞEKKÜRLER
 
Cevapla
  


Konu ile Alakalı Benzer Konular
Konular Yazar Yorumlar Okunma Son Yorum
Filmin Yayınlanma Tarihi: 2016 Ölüm Alfabesi: Kötülüğün Başlangıcı Türkçe Dublaj Brrip-Xvid İndir BroserBros 3 1,369 15-02-2020, Saat: 13:00
Son Yorum: pentagramnet
Filmin Yayınlanma Tarihi: 2019 İstilacılar (Snatchers) Türkçe Dublaj BRRip XviD indir BroserBros 0 62 15-02-2020, Saat: 12:56
Son Yorum: BroserBros
Filmin Yayınlanma Tarihi: 2018 Seni Hala Görüyorum (I Still See You) Türkçe Dublaj BRRip XviD indir BroserBros 0 89 15-02-2020, Saat: 12:44
Son Yorum: BroserBros
Filmin Yayınlanma Tarihi: 2009 Halloween II: Katliam (Hallowwen 2) Türkçe Dublaj BRRip XviD indir BroserBros 0 64 13-02-2020, Saat: 19:22
Son Yorum: BroserBros
Filmin Yayınlanma Tarihi: 2007 Halloween 9 (Cadılar Bayramı) Türkçe Dublaj BRRip XviD İndir BroserBros 1 94 08-02-2020, Saat: 22:22
Son Yorum: BqRs

Hızlı Menü:


Browsing: 1 Ziyaretçi