Filmbol Forum Film İndir BRRip XviD v Ölüm Alfabesi (Ouija) Türkçe Dublaj BRRip XviD indir
Moderatör Alımları Başladı! Başvuru yapmak için tıklayın.
Filmbol Premium'da %50'e varan indirim fırsatı!
Ölüm Alfabesi (Ouija) Türkçe Dublaj BRRip XviD indir
BroserBros
Ölüm Alfabesi (Ouija) Türkçe Dublaj BRRip XviD indir
5
367
  • Derecelendirme: 0/5 - 0 oy
  • 1
  • 2
  • 3
  • 4
  • 5
Konuyu Okuyanlar:1 Ziyaretçi
Şuan Online!
Filmin Yayınlanma Tarihi: 2014 
Şuan Online!
BroserBros Kurucu Admin
*******
Admin

Vizyon Tarihi


28 Kasım 2014

imdb puanı


4,5 / 50,000

süre


89 dakika

Editör Puanı


5,5 / 10

Video Format: Avi


Audio Video Interleave (.AVI)

Ses Kodek: MP3


MPEG-1 Audio Layer III (MP3)

sürüm


h263 | DVDRip

Boyutlar


0,70



 Ölüm Alfabesi



Debbie, video günlük tutan bir genç kızdır. Bir gün evlerinde bir oyun bulur. Üzerinde Ouija yazan bu tahtanın üzerinde harfler ve "evet" "hayır" seçenekleri vardır. Oyunu bulmasıyla birlikte evde tuhaf şeyler olmaya başlar. Genç kız evinde asılmış olarak bulunur. En iyi arkadaşının ölümünü bir türlü kabullenemeyen Laine, onunla bir şekilde yeniden iletişim kurmak ister. Yakın arkadaşlarıyla gizemi çözmek için bu Ouija'yı araştırmaya başlarlar, ancak Debbie, tahtaya bakarken kötücül güçleri uyandırmıştır ve arkadaşları da büyük bir tehlike altındadır. Durdurmak içinse artık çok geçtir.
Stiles White'ın ilk yönetmenlik deneyimini gerçekleştirdiği filmin başrollerini Olivia Cooke, Ana Coto, Daren Kagasoff gibi isimler paylaşıyor.

Ölüm Alfabesi (2014) (Ouija) Filmi Imdb'den 50,000 kişi tarafından oylandı ve 4,5 puan aldı. Bu film için editör puanı 5,5 olarak belirlendi. İyi Seyirler!

Teknik Detaylar

Kod :
General
Complete name                            : /root/Desktop/6/Olum.Alfabesi.2014.DVDRip.XviD.TR.Filmbol.avi
Format                                   : AVI
Format/Info                              : Audio Video Interleave
File size                                : 700 MiB
Duration                                 : 1h 29mn
Overall bit rate                         : 1 094 Kbps

Video
ID                                       : 0
Format                                   : MPEG-4 Visual
Format profile                           : Advanced Simple@L5
Format settings, BVOP                    : 2
Format settings, QPel                    : No
Format settings, GMC                     : No warppoints
Format settings, Matrix                  : Default (H.263)
Codec ID                                 : XVID
Codec ID/Hint                            : XviD
Duration                                 : 1h 29mn
Bit rate                                 : 953 Kbps
Width                                    : 720 pixels
Height                                   : 304 pixels
Display aspect ratio                     : 2.35:1
Frame rate                               : 23.976 (23976/1000) fps
Color space                              : YUV
Chroma subsampling                       : 4:2:0
Bit depth                                : 8 bits
Scan type                                : Progressive
Compression mode                         : Lossy
Bits/(Pixel*Frame)                       : 0.182
Stream size                              : 610 MiB (87%)
Writing library                          : XviD 65

Audio
ID                                       : 1
Format                                   : MPEG Audio
Format version                           : Version 1
Format profile                           : Layer 3
Codec ID                                 : 55
Codec ID/Hint                            : MP3
Duration                                 : 1h 29mn
Bit rate mode                            : Constant
Bit rate                                 : 128 Kbps
Channel(s)                               : 2 channels
Sampling rate                            : 48.0 KHz
Compression mode                         : Lossy
Stream size                              : 81.8 MiB (12%)
Alignment                                : Aligned on interleaves
Interleave, duration                     : 24 ms (0.58 video frame)

Film Detayları


 Ölüm Alfabesi

 Ölüm Alfabesi

 Ölüm Alfabesi


Film Fragmanı


Film Detayları


Uptobox ile indir

1Fichier ile indir

1Fichier'den İndiremiyor musun? Tıklayın!


Mega ile indir

MediaFire ile indir

Şuan Offine!
Şuan Offine!
filmbolcu Süper Üye
***
Super Üye

  • Konular12
  • Mesajlar33
  • Rep puanı 2
ÇOK TEŞEKKÜRLER
Şuan Offine!
Şuan Offine!
Nyx Ulric Uzman Üye
**
Uzman Üye

  • Konular0
  • Mesajlar8
  • Rep puanı 0
Teşekkürler.
Şuan Offine!
Şuan Offine!
filmbolcu Süper Üye
***
Super Üye

  • Konular12
  • Mesajlar33
  • Rep puanı 2
Filmin sesinde senkron/kayma sorunu var; düzeltebilir misiniz?
Şuan Offine!
Şuan Offine!
Nyx Ulric Uzman Üye
**
Uzman Üye

  • Konular0
  • Mesajlar8
  • Rep puanı 0
Ses kayması var. Düzeltme imkanı var mı?
Şuan Offine!
Şuan Offine!
filmbolcu Süper Üye
***
Super Üye

  • Konular12
  • Mesajlar33
  • Rep puanı 2
Hocam, sesle ilgili sıkıntı var, bi bakar mısın?


Konu ile Alakalı Benzer Konular
Konular Yazar Yorumlar Okunma Son Yorum
Filmin Yayınlanma Tarihi: 2014
Lucy (2014) Türkçe Dublaj BRRip XviD İndir BroserBros 1 262 19-09-2020, Saat: 00:56
Son Yorum: sectechno
Filmin Yayınlanma Tarihi: 2020
The Hunt (Av) - 2020 - TR - BRRip XviD BroserBros 0 310 18-09-2020, Saat: 19:28
Son Yorum: BroserBros
Filmin Yayınlanma Tarihi: 2018
Gözbebeğim (Pupille) - 2018 - TR - BRRip XviD BroserBros 0 310 18-09-2020, Saat: 13:02
Son Yorum: BroserBros
Filmin Yayınlanma Tarihi: 2019
Umut Vadisi (Hope Gap) - 2019 - TR - BRRip XviD BroserBros 0 311 18-09-2020, Saat: 12:50
Son Yorum: BroserBros
Filmin Yayınlanma Tarihi: 2019
Cep Herkülü: Naim Süleymanoğlu (Cep Herkülü: Naim Süleymanoğlu) - 2019 - TR - BRRip XviD BroserBros 0 114 15-09-2020, Saat: 21:51
Son Yorum: BroserBros

Hızlı Menü: