Filmbol Forum Film İndir 720P v Ölüm Alfabesi (Ouija) Türkçe Dublaj BLURAY 720P indir
Moderatör Alımları Başladı! Başvuru yapmak için tıklayın.
Filmbol Premium'da %50'e varan indirim fırsatı!
Ölüm Alfabesi (Ouija) Türkçe Dublaj BLURAY 720P indir
BroserBros
Ölüm Alfabesi (Ouija) Türkçe Dublaj BLURAY 720P indir
1
217
  • Derecelendirme: 0/5 - 0 oy
  • 1
  • 2
  • 3
  • 4
  • 5
Konuyu Okuyanlar:1 Ziyaretçi
Şuan Online!
Filmin Yayınlanma Tarihi: 2014 
Şuan Online!
BroserBros Kurucu Admin
*******
Admin

Vizyon Tarihi


28 Kasım 2014

imdb puanı


4,5 / 50,000

süre


89 dakika

Editör Puanı


5,5 / 10

Video Format: Mkv


Matroska (.MKV)

Ses Kodek: AC3


Audio Coding 3 (AC3)

sürüm


x264 | 720P | BLURAY

Boyutlar


0,92



 Ölüm Alfabesi



Debbie, video günlük tutan bir genç kızdır. Bir gün evlerinde bir oyun bulur. Üzerinde Ouija yazan bu tahtanın üzerinde harfler ve "evet" "hayır" seçenekleri vardır. Oyunu bulmasıyla birlikte evde tuhaf şeyler olmaya başlar. Genç kız evinde asılmış olarak bulunur. En iyi arkadaşının ölümünü bir türlü kabullenemeyen Laine, onunla bir şekilde yeniden iletişim kurmak ister. Yakın arkadaşlarıyla gizemi çözmek için bu Ouija'yı araştırmaya başlarlar, ancak Debbie, tahtaya bakarken kötücül güçleri uyandırmıştır ve arkadaşları da büyük bir tehlike altındadır. Durdurmak içinse artık çok geçtir.
Stiles White'ın ilk yönetmenlik deneyimini gerçekleştirdiği filmin başrollerini Olivia Cooke, Ana Coto, Daren Kagasoff gibi isimler paylaşıyor.

Ölüm Alfabesi (2014) (Ouija) Filmi Imdb'den 50,000 kişi tarafından oylandı ve 4,5 puan aldı. Bu film için editör puanı 5,5 olarak belirlendi. İyi Seyirler!

Teknik Detaylar

Kod :
General
Unique ID                                : 79408803657339173059558853034815821433 (0x3BBD944BC534EBE8560DEAA12F049679)
Complete name                            : /root/Desktop/6/Ölüm.Alfabesi.2014.720p.BluRay.x264.Filmbol.mkv
Format                                   : Matroska
Format version                           : Version 4 / Version 2
File size                                : 926 MiB
Duration                                 : 1h 29mn
Overall bit rate                         : 1 446 Kbps
Movie name                               : Ölüm Alfabesi (2014) - Filmbol.org
Encoded date                             : UTC 2020-02-14 08:50:37
Writing application                      : mkvmerge v35.0.0 ('All The Love In The World') 64-bit
Writing library                          : libebml v1.3.9 + libmatroska v1.5.2

Video
ID                                       : 1
Format                                   : AVC
Format/Info                              : Advanced Video Codec
Format profile                           : High@L4.1
Format settings, CABAC                   : Yes
Format settings, ReFrames                : 4 frames
Codec ID                                 : V_MPEG4/ISO/AVC
Duration                                 : 1h 29mn
Bit rate                                 : 997 Kbps
Width                                    : 1 280 pixels
Height                                   : 536 pixels
Display aspect ratio                     : 2.40:1
Frame rate mode                          : Constant
Frame rate                               : 23.976 (24000/1001) fps
Original frame rate                      : 23.976 (23976/1000) fps
Color space                              : YUV
Chroma subsampling                       : 4:2:0
Bit depth                                : 8 bits
Scan type                                : Progressive
Bits/(Pixel*Frame)                       : 0.061
Stream size                              : 638 MiB (69%)
Title                                    : 720P - Filmbol.org
Writing library                          : x264 core 142 r2479 dd79a61
Encoding settings                        : cabac=1 / ref=4 / deblock=1:-1:-1 / analyse=0x3:0x133 / me=umh / subme=9 / psy=1 / psy_rd=1.00:0.15 / mixed_ref=1 / me_range=24 / chroma_me=1 / trellis=2 / 8x8dct=1 / cqm=0 / deadzone=21,11 / fast_pskip=0 / chroma_qp_offset=-3 / threads=48 / lookahead_threads=4 / sliced_threads=0 / nr=0 / decimate=1 / interlaced=0 / bluray_compat=0 / constrained_intra=0 / bframes=3 / b_pyramid=2 / b_adapt=2 / b_bias=0 / direct=3 / weightb=1 / open_gop=0 / weightp=2 / keyint=250 / keyint_min=23 / scenecut=40 / intra_refresh=0 / rc_lookahead=60 / rc=2pass / mbtree=1 / bitrate=997 / ratetol=1.0 / qcomp=0.60 / qpmin=0 / qpmax=69 / qpstep=4 / cplxblur=20.0 / qblur=0.5 / vbv_maxrate=31250 / vbv_bufsize=31250 / nal_hrd=none / filler=0 / ip_ratio=1.40 / aq=1:1.00
Default                                  : Yes
Forced                                   : No
Color range                              : Limited
Color primaries                          : BT.709
Matrix coefficients                      : BT.709

Audio
ID                                       : 2
Format                                   : AC-3
Format/Info                              : Audio Coding 3
Mode extension                           : CM (complete main)
Format settings, Endianness              : Big
Codec ID                                 : A_AC3
Duration                                 : 1h 29mn
Bit rate mode                            : Constant
Bit rate                                 : 448 Kbps
Channel(s)                               : 6 channels
Channel positions                        : Front: L C R, Side: L R, LFE
Sampling rate                            : 48.0 KHz
Frame rate                               : 31.250 fps (1536 spf)
Compression mode                         : Lossy
Stream size                              : 286 MiB (31%)
Title                                    : Türkçe - Filmbol.org
Default                                  : Yes
Forced                                   : No

Film Detayları


 Ölüm Alfabesi

 Ölüm Alfabesi

 Ölüm Alfabesi


Film Fragmanı


Film Detayları

Uptobox ile indir

1Fichier ile indir

1Fichier'den İndiremiyor musun? Tıklayın!


Mega ile indir

MediaFire ile indir

Şuan Offine!
Şuan Offine!
draydinozkan Süper Üye
***
Super Üye

  • Konular0
  • Mesajlar57
  • Rep puanı 0
Teşekkürler.


Konu ile Alakalı Benzer Konular
Konular Yazar Yorumlar Okunma Son Yorum
Filmin Yayınlanma Tarihi: 2020
The Hunt (Av) - 2020 - TR+ORG - 720P BroserBros 0 328 18-09-2020, Saat: 19:28
Son Yorum: BroserBros
Filmin Yayınlanma Tarihi: 2018
Gözbebeğim (Pupille) - 2018 - TR+ORG - 720P BroserBros 0 323 18-09-2020, Saat: 13:02
Son Yorum: BroserBros
  Umut Vadisi (Hope Gap) - 2019 - TR+ORG - 720P BroserBros 0 319 18-09-2020, Saat: 12:51
Son Yorum: BroserBros
Filmin Yayınlanma Tarihi: 2020
Malibu Rescue: Yeni Dalga (Malibu Rescue: The Next Wave) - 2020 - TR+ORG - 720P BroserBros 0 142 13-09-2020, Saat: 20:54
Son Yorum: BroserBros
Filmin Yayınlanma Tarihi: 2020
Masallardan Geriye Kalan (Yerli) - 2020 - TR+ORG - 720P BroserBros 0 389 01-09-2020, Saat: 21:49
Son Yorum: BroserBros

Hızlı Menü: