Hoşgeldin, Ziyaretçi: Giriş Yap Üye Ol


stats
Adblock'u kapattıysanız tıklayın.
Hoşgeldiniz!
Filmbol'u tercih ettiğiniz için teşekkürler, ancak ablock kullanarak devam edemezsiniz.
Merak etmeyin. Heryerden ardı ardına çıkan reklamlar görmeyeceksiniz :)

Sadece site içi 1 reklam göreceksin ve bu site gezintini etkilemeyecek.
Konuyu Oyla:
  • Derecelendirme: 0/5 - 0 oy
  • 1
  • 2
  • 3
  • 4
  • 5
Title: Öldürme Arzusu (Death Wish) Türkçe Dublaj Brrip-Xvid İndir
Gösterim Stili
#1
Filmin Yayınlanma Tarihi: 2018 

indirme türü


Bulut + Premium

vizyon tarihi


16 Mart 2018

Boyutlar


1,20

diller


[TR]

altyazilar


Yok [Eklenebilir]

Video Format: Avi


Audio Video Interleave (.AVI)

Video Detay


MPEG-4, 1484 Kbps, 1,11 GB

imdb puanı


6,4 / 10,0 / 31,000

süre


107 dakika

Ses Kodek: MP3


MPEG-1 Audio Layer III (MP3)

Ses Detay


128 Kbps, 2 Kanal, 98 Mb

rarsifresi


Filmbol.org

Editör Puanı


6,5

Genislik Yukseklik


720x300

sürüm


h263 | Brrip-Xvid



Film Detayları

Evi soyulduğu gün, karısının hırsızlar tarafından öldürülüp, kızının ise koma da bırakıldığı bir adam düşünün. Şimdi de onun intikam hikayesini izliyorsunuz.

Öldürme Arzusu (Death Wish) Filmi İmdb'den 31.000 kişi tarafından oylandı ve 6,4 puan aldı. Bu film için editör puanı 7,1 olarak belirlendi. İyi Seyirler!


Teknik Detaylar
Kod:
General
Complete name                            : Death.Wish.2018.BRRip.XviD.TR.avi
Format                                   : AVI
Format/Info                              : Audio Video Interleave
File size                                : 1.21 GiB
Duration                                 : 1 h 46 min
Overall bit rate                         : 1 625 kb/s

Video
ID                                       : 0
Format                                   : MPEG-4 Visual
Format profile                           : Simple@L5
Format settings, BVOP                    : No
Format settings, QPel                    : No
Format settings, GMC                     : No warppoints
Format settings, Matrix                  : Default (H.263)
Codec ID                                 : XVID
Codec ID/Hint                            : XviD
Duration                                 : 1 h 46 min
Bit rate                                 : 1 484 kb/s
Width                                    : 720 pixels
Height                                   : 300 pixels
Display aspect ratio                     : 2.40:1
Frame rate                               : 23.976 (24000/1001) FPS
Color space                              : YUV
Chroma subsampling                       : 4:2:0
Bit depth                                : 8 bits
Scan type                                : Progressive
Compression mode                         : Lossy
Bits/(Pixel*Frame)                       : 0.287
Stream size                              : 1.11 GiB (91%)
Writing library                          : Lavc57.107.100

Audio
ID                                       : 1
Format                                   : MPEG Audio
Format version                           : Version 1
Format profile                           : Layer 3
Format settings                          : Joint stereo / MS Stereo
Codec ID                                 : 55
Codec ID/Hint                            : MP3
Duration                                 : 1 h 46 min
Bit rate mode                            : Constant
Bit rate                                 : 128 kb/s
Channel(s)                               : 2 channels
Sampling rate                            : 48.0 kHz
Frame rate                               : 41.667 FPS (1152 SPF)
Compression mode                         : Lossy
Stream size                              : 97.7 MiB (8%)
Alignment                                : Aligned on interleaves
Interleave, duration                     : 24  ms (0.58 video frame)




Film Detayları


Oldurme Arzusu

Oldurme Arzusu

Oldurme Arzusu

Oldurme Arzusu

Oldurme Arzusu


Film Fragmanı


Film Detayları

Brrip İndir


Turbobit İle İndir

Mega ile indir

Uptobox ile indir

Cloud Ru ile indir

 
Cevapla
#2
Teşekkürler.İzlenilecek bir film.
 
Cevapla
  


Konu ile Alakalı Benzer Konular
Konular Yazar Yorumlar Okunma Son Yorum
Filmin Yayınlanma Tarihi: 2018 Sessiz Kalma (The Hate U Give) Türkçe Dublaj Brrip Xvid İndir BroserBros 0 85 20-08-2019, Saat: 11:07
Son Yorum: BroserBros
Filmin Yayınlanma Tarihi: 2019 The Highwaymen (2019) Türkçe Dublaj Brrip Xvid İndir BroserBros 0 129 18-07-2019, Saat: 17:07
Son Yorum: BroserBros
Filmin Yayınlanma Tarihi: 2019 Shaft (Shaft) Türkçe Dublaj Brrip-Xvid İndir BroserBros 0 149 05-07-2019, Saat: 21:56
Son Yorum: BroserBros
Filmin Yayınlanma Tarihi: 2015 Sicario (Sicario) Türkçe Dublaj Brrip-Xvid İndir BroserBros 1 1,343 11-01-2019, Saat: 03:14
Son Yorum: mehmetemin
Filmin Yayınlanma Tarihi: 2018 İntikam: Bir Aşk Hikayesi (Vengeance: A Love Story) Türkçe Dublaj Brrip-Xvid İndir BroserBros 0 447 03-08-2018, Saat: 20:03
Son Yorum: BroserBros

Hızlı Menü:


Browsing: 2 Ziyaretçi