Filmbol Forum Film İndir 720P v Öğrenci Ofisi (School Life) - 2019 - TR - 720P
Moderatör Alımları Başladı! Başvuru yapmak için tıklayın.
Filmbol Premium'da %50'e varan indirim fırsatı!
Öğrenci Ofisi (School Life) - 2019 - TR - 720P
BroserBros
Öğrenci Ofisi (School Life) - 2019 - TR - 720P
0
134
  • Derecelendirme: 0/5 - 0 oy
  • 1
  • 2
  • 3
  • 4
  • 5
Konuyu Okuyanlar:1 Ziyaretçi
Şuan Offine!
Filmin Yayınlanma Tarihi: 2019 
Şuan Offine!
BroserBros Kurucu Admin
*******
Admin

Vizyon Tarihi


28 Ağustos 2019

imdb puanı


6,6 / 1,000

süre


111 dakika

Editör Puanı


6,0 / 10

Video Format: Mkv


Matroska (.MKV)

Ses Kodek: AC3


Audio Coding 3 (AC3)

sürüm


x264 | 720P | BLURAY

Boyutlar


1,62 GB



 Öğrenci Ofisi



Paris'in gözde yerlerinden uzak bir kasabanın durumu pekte iç açıcı değildir. Bu kötü durumda bile bir öğretmen, kendi kişiler sorunlarına rağmen öğrencileri ile ilgilenmeye devam eder...

Öğrenci Ofisi (2019) (School Life) Filmi Imdb'den 1,000 kişi tarafından oylandı ve 6,6 puan aldı. Bu film için editör puanı 6,0 olarak belirlendi. İyi Seyirler!

Teknik Detaylar

Kod :
General
Unique ID                                : 250121486522603337255497875750953235095 (0xBC2BA5646008E26CB4B7C5C426153297)
Complete name                            : /root/Desktop/3/Öğrenci.Ofisi.2019.720p.BluRay.x264.TR.Filmbol.mkv
Format                                  : Matroska
Format version                          : Version 4 / Version 2
File size                                : 1.62 GiB
Duration                                : 1h 51mn
Overall bit rate                        : 2 071 Kbps
Movie name                              : Öğrenci Ofisi (2019) - Filmbol.org
Encoded date                            : UTC 2020-04-16 07:53:32
Writing application                      : mkvmerge v8.8.0 ('Wind at my back') 64bit
Writing library                          : libebml v1.3.3 + libmatroska v1.4.4

Video
ID                                      : 1
Format                                  : AVC
Format/Info                              : Advanced Video Codec
Format profile                          : High@L4.1
Format settings, CABAC                  : Yes
Format settings, ReFrames                : 4 frames
Codec ID                                : V_MPEG4/ISO/AVC
Duration                                : 1h 51mn
Bit rate                                : 1 700 Kbps
Width                                    : 1 280 pixels
Height                                  : 536 pixels
Display aspect ratio                    : 2.40:1
Frame rate mode                          : Constant
Frame rate                              : 24.000 fps
Color space                              : YUV
Chroma subsampling                      : 4:2:0
Bit depth                                : 8 bits
Scan type                                : Progressive
Bits/(Pixel*Frame)                      : 0.103
Stream size                              : 1.32 GiB (81%)
Title                                    : 720P
Writing library                          : x264 core 152 r2851 ba24899
Encoding settings                        : cabac=1 / ref=3 / deblock=1:0:0 / analyse=0x3:0x113 / me=hex / subme=7 / psy=1 / psy_rd=1.00:0.00 / mixed_ref=1 / me_range=16 / chroma_me=1 / trellis=1 / 8x8dct=1 / cqm=0 / deadzone=21,11 / fast_pskip=1 / chroma_qp_offset=-2 / threads=12 / lookahead_threads=2 / sliced_threads=0 / nr=0 / decimate=1 / interlaced=0 / bluray_compat=0 / constrained_intra=0 / bframes=3 / b_pyramid=2 / b_adapt=1 / b_bias=0 / direct=1 / weightb=1 / open_gop=0 / weightp=2 / keyint=240 / keyint_min=24 / scenecut=40 / intra_refresh=0 / rc_lookahead=40 / rc=2pass / mbtree=1 / bitrate=1700 / ratetol=1.0 / qcomp=0.60 / qpmin=0 / qpmax=69 / qpstep=4 / cplxblur=20.0 / qblur=0.5 / vbv_maxrate=62500 / vbv_bufsize=78125 / nal_hrd=none / filler=0 / ip_ratio=1.40 / aq=1:1.00
Default                                  : Yes
Forced                                  : No

Audio
ID                                      : 2
Format                                  : AC-3
Format/Info                              : Audio Coding 3
Mode extension                          : CM (complete main)
Format settings, Endianness              : Big
Codec ID                                : A_AC3
Duration                                : 1h 51mn
Bit rate mode                            : Constant
Bit rate                                : 384 Kbps
Channel(s)                              : 6 channels
Channel positions                        : Front: L C R, Side: L R, LFE
Sampling rate                            : 48.0 KHz
Frame rate                              : 31.250 fps (1536 spf)
Compression mode                        : Lossy
Stream size                              : 307 MiB (19%)
Title                                    : Türkçe
Language                                : Turkish
Default                                  : Yes
Forced                                  : No

Text
ID                                      : 3
Format                                  : UTF-8
Codec ID                                : S_TEXT/UTF8
Codec ID/Info                            : UTF-8 Plain Text
Duration                                : 1h 50mn
Bit rate                                : 1 bps
Count of elements                        : 25
Stream size                              : 896 Bytes (0%)
Title                                    : KISIM
Language                                : Turkish
Default                                  : Yes
Forced                                  : Yes

Film Detayları


 Öğrenci Ofisi

 Öğrenci Ofisi

 Öğrenci Ofisi


Film Fragmanı


Film Detayları

Uptobox ile indir

1Fichier ile indir

1Fichier'den İndiremiyor musun? Tıklayın!


Mega ile indir

Bunun için üzgünüz ancak, bu linke sadece premium üyeler erişebilir.

Filmbol Cloud



Konu ile Alakalı Benzer Konular
Konular Yazar Yorumlar Okunma Son Yorum
Filmin Yayınlanma Tarihi: 2020
The Hunt (Av) - 2020 - TR+ORG - 720P BroserBros 0 187 18-09-2020, Saat: 19:28
Son Yorum: BroserBros
Filmin Yayınlanma Tarihi: 2018
Gözbebeğim (Pupille) - 2018 - TR+ORG - 720P BroserBros 0 187 18-09-2020, Saat: 13:02
Son Yorum: BroserBros
  Umut Vadisi (Hope Gap) - 2019 - TR+ORG - 720P BroserBros 0 180 18-09-2020, Saat: 12:51
Son Yorum: BroserBros
Filmin Yayınlanma Tarihi: 2019
Cep Herkülü: Naim Süleymanoğlu (Cep Herkülü: Naim Süleymanoğlu) - 2019 - TR+ORG - 720P BroserBros 0 135 15-09-2020, Saat: 21:51
Son Yorum: BroserBros
Filmin Yayınlanma Tarihi: 2020
Malibu Rescue: Yeni Dalga (Malibu Rescue: The Next Wave) - 2020 - TR+ORG - 720P BroserBros 0 139 13-09-2020, Saat: 20:54
Son Yorum: BroserBros

Hızlı Menü: