Filmbol Forum Film İndir 1080P v Öcü Cucuy (Cucuy: The Boogeyman) - 2018 - TR - 1080P
Moderatör Alımları Başladı! Başvuru yapmak için tıklayın.
Filmbol Premium'da %50'e varan indirim fırsatı!
Öcü Cucuy (Cucuy: The Boogeyman) - 2018 - TR - 1080P
BroserBros
Öcü Cucuy (Cucuy: The Boogeyman) - 2018 - TR - 1080P
0
157
  • Derecelendirme: 0/5 - 0 oy
  • 1
  • 2
  • 3
  • 4
  • 5
Konuyu Okuyanlar:1 Ziyaretçi
Şuan Online!
Filmin Yayınlanma Tarihi: 2018 
Şuan Online!
BroserBros Kurucu Admin
*******
Admin

Vizyon Tarihi


12 Haziran 2019

imdb puanı


4,6 / 1,000

süre


94 dakika

Editör Puanı


5,0 / 10

Video Format: Mkv


Matroska (.MKV)

Ses Kodek: AC3


Audio Coding 3 (AC3)

sürüm


x264 | 1080P | WEB-DL

Boyutlar


1,56 GB



 Öcü Cucuy



Öcü! Elbette bu sözcüğü bir yerlerden duydunuz. Çocukların korkulu rüyası Öcü! artık gerçek oluyor. Ev hapsi cezasında olan bir çocuga musallat olan öcü, onu yeterince korkutacaktır...

Öcü Cucuy (2018) (Cucuy: The Boogeyman) Filmi Imdb'den 1,000 kişi tarafından oylandı ve 4,6 puan aldı. Bu film için editör puanı 5,0 olarak belirlendi. İyi Seyirler!

Teknik Detaylar

Kod :
General
Unique ID                                : 315787208003441913578243950029177271902 (0xED92676C347972114B2D5C644976B65E)
Complete name                            : /root/Desktop/4/Öcü.Cucuy.2018.1080p.WEB-DL.x264.TR.Filmbol.mkv
Format                                  : Matroska
Format version                          : Version 4 / Version 2
File size                                : 1.56 GiB
Duration                                : 1h 34mn
Overall bit rate                        : 2 354 Kbps
Movie name                              : Öcü Cucuy - Cucuy The Boogeyman (2018) - Filmbol.org
Encoded date                            : UTC 2020-04-27 14:59:24
Writing application                      : mkvmerge v8.8.0 ('Wind at my back') 64bit
Writing library                          : libebml v1.3.3 + libmatroska v1.4.4

Video
ID                                      : 1
Format                                  : AVC
Format/Info                              : Advanced Video Codec
Format profile                          : Main@L4
Format settings, CABAC                  : Yes
Format settings, ReFrames                : 2 frames
Codec ID                                : V_MPEG4/ISO/AVC
Duration                                : 1h 34mn
Bit rate                                : 2 160 Kbps
Width                                    : 1 916 pixels
Height                                  : 1 072 pixels
Display aspect ratio                    : 16:9
Frame rate mode                          : Constant
Frame rate                              : 23.976 (24000/1001) fps
Color space                              : YUV
Chroma subsampling                      : 4:2:0
Bit depth                                : 8 bits
Scan type                                : Progressive
Bits/(Pixel*Frame)                      : 0.044
Stream size                              : 1.43 GiB (92%)
Title                                    : 1080P
Language                                : English
Default                                  : Yes
Forced                                  : No

Audio
ID                                      : 2
Format                                  : AC-3
Format/Info                              : Audio Coding 3
Mode extension                          : CM (complete main)
Format settings, Endianness              : Big
Codec ID                                : A_AC3
Duration                                : 1h 34mn
Bit rate mode                            : Constant
Bit rate                                : 192 Kbps
Channel(s)                              : 2 channels
Channel positions                        : Front: L R
Sampling rate                            : 48.0 KHz
Frame rate                              : 31.250 fps (1536 spf)
Compression mode                        : Lossy
Stream size                              : 130 MiB (8%)
Title                                    : Türkçe
Language                                : Turkish
Default                                  : Yes
Forced                                  : No

Film Detayları


 Öcü Cucuy

 Öcü Cucuy

 Öcü Cucuy


Film Fragmanı


Film Detayları

Uptobox ile indir

1Fichier ile indir

1Fichier'den İndiremiyor musun? Tıklayın!


Mega ile indir

Bunun için üzgünüz ancak, bu linke sadece premium üyeler erişebilir.

Filmbol Cloud



Konu ile Alakalı Benzer Konular
Konular Yazar Yorumlar Okunma Son Yorum
Filmin Yayınlanma Tarihi: 2018
Venom: Zehirli Öfke (2018) Türkçe Dublaj Bluray m1080P İndir DRMOV 42 3,921 26-09-2020, Saat: 21:58
Son Yorum: egzantirik7
Filmin Yayınlanma Tarihi: 2018
Mogli: Orman Çocuğu (Mowgli) Türkçe Dublaj BLURAY 1080P İndir BroserBros 10 845 19-09-2020, Saat: 13:11
Son Yorum: Rocklion17
Filmin Yayınlanma Tarihi: 2020
The Hunt (Av) - 2020 - TR+ORG - 1080P BroserBros 0 317 18-09-2020, Saat: 19:28
Son Yorum: BroserBros
Filmin Yayınlanma Tarihi: 2018
Gözbebeğim (Pupille) - 2018 - TR+ORG - 1080P BroserBros 0 324 18-09-2020, Saat: 13:02
Son Yorum: BroserBros
Filmin Yayınlanma Tarihi: 2019
Umut Vadisi (Hope Gap) - 2019 - TR+ORG - 1080P BroserBros 0 320 18-09-2020, Saat: 12:52
Son Yorum: BroserBros

Hızlı Menü: