Filmbol Forum Film İndir 720P v Ocean's Eight (Ocean's 8) Türkçe Dublaj BLURAY 720P İndir
Mega linklerinin şikayet edilmemesi için global erişime kapatıp sadece yorum yapanlara açıyoruz. Bu linkleri gizleme işlemini mecburen yapıyoruz ve yorum yapmanızın siteye değil size faydası vardır. Teşekürler yazmayı çok görüp, Random/Spam mesajlar atarak Mega linklerini açmaya çalışan kullanıcılara önce süresiz ban, devam ederse IP ban atacağız.
Filmbol'da moderatör olmak ister misiniz? Bizimle iletişime geçmek için tıklayın!
Ocean's Eight (Ocean's 8) Türkçe Dublaj BLURAY 720P İndir
BroserBros
Ocean's Eight (Ocean's 8) Türkçe Dublaj BLURAY 720P İndir
1
356
  • Derecelendirme: 0/5 - 0 oy
  • 1
  • 2
  • 3
  • 4
  • 5
Konuyu Okuyanlar:1 Ziyaretçi
Şuan Online!
Filmin Yayınlanma Tarihi: 2018 
WWW
Şuan Online!
BroserBros Kurucu Admin
*******
Admin




Video Format: Mkv


Matroska (.MKV)

Ses Kodek: AC3


Audio Coding 3 (AC3)





Ocean's Eight



Film Detayları

Ocean’s serisinde George Clooney'nin canlandırdığı Danny Ocean'ın kız kardeşi olan Debbie Ocean, beş yıllık bir hapsin ardından serbest kalmıştır. Ancak planı özgürlüğünü kazandığı gibi tatile gitmek ya da sakin bir hayata geçiş yapmak değildir. Debbie hemen yeni bir soygun planına girişir. Yıldızlar yağmurunun yaşandığı Met Galası'nı hedef alan Debbie, soygun için Lou, Nine Ball, Amita, Constance, Rose, Daphne Kluger ve Tammy'den oluşan mükemmel bir kadroyu toplar ve sekiz kişilik bu usta hırsız grubu, mükemmel soygun için kolları sıvarlar. En önemli hedefleri ise Daphne Kluger'ın boynundaki değerli gerdanlıktır...

Ocean's Eight (Ocean's 8) Filmi Imdb'den 160,000 kişi tarafından oylandı ve 6,2 puan aldı. Bu film için editör puanı 7,0 olarak belirlendi. İyi Seyirler!


Teknik Detaylar


Kod :
General
Unique ID                                : 58008708140957285021680953427853689706 (0x2BA412203C86D9ABA911C0F93821C36A)
Complete name                            : /root/Desktop/5/Oceans.Eight.2018.720p.BluRay.x264.TR.Filmbol.mkv
Format                                   : Matroska
Format version                           : Version 4 / Version 2
File size                                : 980 MiB
Duration                                 : 1h 50mn
Overall bit rate                         : 1 243 Kbps
Movie name                               : Oceans Eight (2018) - Filmbol.org
Encoded date                             : UTC 2020-01-05 02:09:48
Writing application                      : mkvmerge v35.0.0 ('All The Love In The World') 64-bit
Writing library                          : libebml v1.3.9 + libmatroska v1.5.2

Video
ID                                       : 1
Format                                   : AVC
Format/Info                              : Advanced Video Codec
Format profile                           : [email protected]
Format settings, CABAC                   : Yes
Format settings, ReFrames                : 4 frames
Codec ID                                 : V_MPEG4/ISO/AVC
Duration                                 : 1h 50mn
Bit rate                                 : 1 050 Kbps
Width                                    : 1 280 pixels
Height                                   : 534 pixels
Display aspect ratio                     : 2.40:1
Original display aspect ratio            : 2.40:1
Frame rate mode                          : Constant
Frame rate                               : 23.976 (24000/1001) fps
Color space                              : YUV
Chroma subsampling                       : 4:2:0
Bit depth                                : 8 bits
Scan type                                : Progressive
Bits/(Pixel*Frame)                       : 0.064
Stream size                              : 827 MiB (84%)
Title                                    : 720P - Filmbol.org
Writing library                          : x264 core 155
Encoding settings                        : cabac=1 / ref=4 / deblock=1:-1:-1 / analyse=0x3:0x133 / me=umh / subme=9 / psy=1 / psy_rd=1.00:0.15 / mixed_ref=1 / me_range=24 / chroma_me=1 / trellis=2 / 8x8dct=1 / cqm=0 / deadzone=21,11 / fast_pskip=0 / chroma_qp_offset=-3 / threads=17 / lookahead_threads=1 / sliced_threads=0 / nr=0 / decimate=1 / interlaced=0 / bluray_compat=0 / constrained_intra=0 / bframes=3 / b_pyramid=2 / b_adapt=2 / b_bias=0 / direct=3 / weightb=1 / open_gop=0 / weightp=2 / keyint=250 / keyint_min=23 / scenecut=40 / intra_refresh=0 / rc_lookahead=60 / rc=2pass / mbtree=1 / bitrate=1050 / ratetol=1.0 / qcomp=0.60 / qpmin=0 / qpmax=69 / qpstep=4 / cplxblur=20.0 / qblur=0.5 / vbv_maxrate=31250 / vbv_bufsize=31250 / nal_hrd=none / filler=0 / ip_ratio=1.40 / aq=1:1.00
Default                                  : Yes
Forced                                   : No

Audio
ID                                       : 2
Format                                   : AC-3
Format/Info                              : Audio Coding 3
Mode extension                           : CM (complete main)
Format settings, Endianness              : Big
Codec ID                                 : A_AC3
Duration                                 : 1h 50mn
Bit rate mode                            : Constant
Bit rate                                 : 192 Kbps
Channel(s)                               : 2 channels
Channel positions                        : Front: L R
Sampling rate                            : 48.0 KHz
Frame rate                               : 31.250 fps (1536 spf)
Compression mode                         : Lossy
Stream size                              : 151 MiB (15%)
Title                                    : Türkçe - Filmbol.org
Language                                 : Turkish
Default                                  : Yes
Forced                                   : Yes

Film Detayları


Ocean's Eight

Ocean's Eight

Ocean's Eight


Film Fragmanı


Film Detayları

Mini 720P İndir



Uptobox ile indir

1Fichier ile indir

1Fichier'den İndiremiyor musun? Tıklayın!


Mega linki şuan da gizli. Kullanıma açmak için konuya yorum yapın ve ardından sayfayı yenileyin.

Mega


MediaFire ile indir

Şuan Offine!
Şuan Offine!
aogcurayiz Yeni Üye
*
Üye

  • Konular0
  • Mesajlar5
  • Rep puanı 0
Elinize sağlık


Konu ile Alakalı Benzer Konular
Konular Yazar Yorumlar Okunma Son Yorum
Filmin Yayınlanma Tarihi: 2017
The Babysitter (The Babysitte) - 2017 - TR+ORG - 720P | tt4225622 TheSteeL 0 12 2 saat önce
Son Yorum: TheSteeL
Filmin Yayınlanma Tarihi: 2020
Bebek Bakıcısı: Katil Kraliçe (The Babysitter: Killer Queen) - 2020 - TR+ORG - 720P | tt11024272 TheSteeL 0 13 2 saat önce
Son Yorum: TheSteeL
Filmin Yayınlanma Tarihi: 2018
Venom: Zehirli Öfke (2018) Türkçe Dublaj Bluray m720P İndir BroserBros 16 2,407 7 saat önce
Son Yorum: Strange
Filmin Yayınlanma Tarihi: 1994
Sevginin Gücü (Léon: The Professional) - 1994 - TR+ORG - 720P | tt0110413 BroserBros 1 287 8 saat önce
Son Yorum: BroserBros
Filmin Yayınlanma Tarihi: 2015
Ters Yüz (Inside Out) Türkçe Dublaj 720P İndir BroserBros 8 6,936 9 saat önce
Son Yorum: serious

Hızlı Menü: