Filmbol Forum Film İndir 720P v O Bölüm 2 (It Chapter Two) Türkçe Dublaj BLURAY m720P İndir
Filmbol'da moderatör olmak ister misiniz? Bizimle iletişime geçmek için tıklayın!
O Bölüm 2 (It Chapter Two) Türkçe Dublaj BLURAY m720P İndir
BroserBros
O Bölüm 2 (It Chapter Two) Türkçe Dublaj BLURAY m720P İndir
7
1282
  • Derecelendirme: 0/5 - 0 oy
  • 1
  • 2
  • 3
  • 4
  • 5
Konuyu Okuyanlar:1 Ziyaretçi
Şuan Online!
Filmin Yayınlanma Tarihi: 2019 
Şuan Online!
BroserBros Kurucu Admin
*******
Admin

indirme türü


Bulut + Premium

Vizyon Tarihi


06 Eylül 2019

Boyutlar


1,95

diller


[TR]

altyazilar


Yok [Eklenebilir]

Video Format: Mkv


Matroska (.MKV)

Video Detay


MPEG-4, 1258Kbps, 1,49GB

imdb puanı


6,8 / 10,0 / 120,000

süre


169 dakika

Ses Kodek: AC3


Audio Coding 3 (AC3)

Ses Detay


384 Kbps, 6 Kanal, 467Mb

Editör Puanı


7,0

Genislik Yukseklik


1248-520

sürüm


x264 | 720P




o Bolum 2


Film Detayları

O Bölüm 2, seytan palyaçonun geri dönmesi ile yirmi yedi yıl sonra yeniden bir araya gelen Ezikler Kulübü üyelerinin hikayesini konu ediyor. Aldığı yenilginin üzerinden geçen yirmi yedi yılın ardından Pennywise, Derry kasabasına geri döner. Ezikler Kulübü’nün üyelerinin her biri bir yana savrulmuş, sadece Mike kasabada yaşamını sürdürmeye devam etmektedir. Mike, tıpkı yıllar önce olduğu gibi insanların ortadan kaybolmaya başlaması sonucu arkadaşlarını kasabaya çağırmaya karar verir. Pennywise'ın geri dönüşü sebebiyle, çocukken söz verdikleri gibi kasabaya geri dönen yetişkinler bir kez daha şeytani palyaço ile karşı karşıyadır. Ancak yıllar sonra bir araya gelen ekibin birbirlerini yeniden tanımaları da bir hayli zor olur. Artık evli bir adam olan Bill ve sevgilisinden şiddet gören Beverly başta olmak üzere, tanıştıklarından bambaşka hayatlar yaşayan eski arkadaşlar, bir kez daha el ele vermek zorunda kalır.

O Bölüm 2 (It Chapter Two) Filmi Imdb'den 120,000 kişi tarafından oylandı ve 6,8 puan aldı. Bu film için editör puanı 7,0 olarak belirlendi. İyi Seyirler!


Teknik Detaylar


Kod :
General
Complete name                            : O.Bölüm.2.2019.m720p.WEB-DL.x264.TR.Filmbol.mkv
Format                                   : Matroska
Format version                           : Version 4 / Version 2
File size                                : 1.95 GiB
Duration                                 : 2h 50mn
Overall bit rate                         : 1 638 Kbps
Movie name                               : O Bölüm 2 (2019) - Filmbol.org
Encoded date                             : UTC 2019-11-25 02:40:19
Writing application                      : mkvmerge v35.0.0 ('All The Love In The World') 64-bit
Writing library                          : libebml v1.3.9 + libmatroska v1.5.2

Video
ID                                       : 1
Format                                   : AVC
Format/Info                              : Advanced Video Codec
Format profile                           : Main@L3.1
Format settings, CABAC                   : Yes
Format settings, ReFrames                : 2 frames
Codec ID                                 : V_MPEG4/ISO/AVC
Duration                                 : 2h 49mn
Bit rate                                 : 1 258 Kbps
Width                                    : 1 248 pixels
Height                                   : 520 pixels
Display aspect ratio                     : 2.40:1
Frame rate mode                          : Constant
Frame rate                               : 23.976 (24000/1001) fps
Color space                              : YUV
Chroma subsampling                       : 4:2:0
Bit depth                                : 8 bits
Scan type                                : Progressive
Bits/(Pixel*Frame)                       : 0.081
Stream size                              : 1.49 GiB (76%)
Title                                    : 720P - Filmbol.org
Default                                  : Yes
Forced                                   : No

Audio
ID                                       : 2
Format                                   : AC-3
Format/Info                              : Audio Coding 3
Mode extension                           : CM (complete main)
Format settings, Endianness              : Big
Codec ID                                 : A_AC3
Duration                                 : 2h 50mn
Bit rate mode                            : Constant
Bit rate                                 : 384 Kbps
Channel(s)                               : 6 channels
Channel positions                        : Front: L C R, Side: L R, LFE
Sampling rate                            : 48.0 KHz
Frame rate                               : 31.250 fps (1536 spf)
Compression mode                         : Lossy
Stream size                              : 467 MiB (23%)
Title                                    : Türkçe - Filmbol.org
Language                                 : Turkish
Default                                  : Yes
Forced                                   : Yes

Film Detayları


O Bolum 2

O Bolum 2

O Bolum 2


Film Fragmanı


Film Detayları

Mini 720P İndir



Uptobox ile indir

LetsUpload ile indir

DosyaUpload ile indir

Mega ile indir

Şuan Offine!
Şuan Offine!
yunuser34 Uzman Üye
**
Uzman Üye

  • Konular0
  • Mesajlar15
  • Rep puanı 0
John wick 3 ?
Şuan Offine!
Şuan Offine!
aiboy2 Yeni Üye
*
Üye

  • Konular0
  • Mesajlar2
  • Rep puanı 0
GÜZEL
Şuan Offine!
Şuan Offine!
asdfg Yeni Üye
*
Üye

  • Konular0
  • Mesajlar1
  • Rep puanı 0
fesrfwg
Şuan Offine!
Şuan Offine!
gokenci43 Uzman Üye
**
Uzman Üye

  • Konular0
  • Mesajlar16
  • Rep puanı 0
çookk  ggzl
Şuan Offine!
Şuan Offine!
vortex Yeni Üye
*
Üye

  • Konular0
  • Mesajlar3
  • Rep puanı 0
AYNEN
Şuan Offine!
Şuan Offine!
bennnnnn Yeni Üye
*
Üye

  • Konular0
  • Mesajlar1
  • Rep puanı 0
yukleyemiyorum
Şuan Offine!
Şuan Offine!
mustafaserdarkaya Yeni Üye
*
Üye

  • Konular0
  • Mesajlar1
  • Rep puanı 0
Djrrj


Konu ile Alakalı Benzer Konular
Konular Yazar Yorumlar Okunma Son Yorum
Filmin Yayınlanma Tarihi: 2004
Harry Potter ve Azbakan Tutsağı (Prisoner of Azkaban) Türkçe Dublaj m720P İndir BroserBros 16 1,589 17-08-2020, Saat: 22:52
Son Yorum: xzxxx
Filmin Yayınlanma Tarihi: 2016
Lanetli Mesaj (Friend Request) Türkçe Dublaj m720P İndir BroserBros 2 1,554 29-07-2020, Saat: 14:11
Son Yorum: gurcan.d
Filmin Yayınlanma Tarihi: 2019
Shazam! 6 Güç Türkçe Dublaj Bluray m720P İndir BroserBros 3 812 18-05-2020, Saat: 19:03
Son Yorum: problemboy1
Filmin Yayınlanma Tarihi: 2019
The Silence (2019) Türkçe Dublaj BLURAY m720P İndir BroserBros 5 704 12-05-2020, Saat: 21:37
Son Yorum: Nizyy
Filmin Yayınlanma Tarihi: 2019
Godzilla 2: Canavarlar Kralı (King of the Monsters) Türkçe Dublaj BLURAY m720P İndir BroserBros 12 1,298 03-05-2020, Saat: 17:05
Son Yorum: jisiso5307

Hızlı Menü: