Filmbol Forum Film İndir 1080P v O Bölüm 2 (It Chapter Two) Türkçe Dublaj BLURAY m1080P İndir
Filmbol'da moderatör olmak ister misiniz? Bizimle iletişime geçmek için tıklayın!
O Bölüm 2 (It Chapter Two) Türkçe Dublaj BLURAY m1080P İndir
BroserBros
O Bölüm 2 (It Chapter Two) Türkçe Dublaj BLURAY m1080P İndir
14
1967
  • Derecelendirme: 0/5 - 0 oy
  • 1
  • 2
  • 3
  • 4
  • 5
Konuyu Okuyanlar:1 Ziyaretçi
Şuan Online!
Filmin Yayınlanma Tarihi: 2019 
Şuan Online!
BroserBros Kurucu Admin
*******
Admin

indirme türü


Bulut + Premium

Vizyon Tarihi


06 Eylül 2019

Boyutlar


2,85

diller


[TR]

altyazilar


Yok [Eklenebilir]

Video Format: Mkv


Matroska (.MKV)

Video Detay


MPEG-4, 2024Kbps, 2,39GB

imdb puanı


6,8 / 10,0 / 120,000

süre


169 dakika

Ses Kodek: AC3


Audio Coding 3 (AC3)

Ses Detay


384 Kbps, 6 Kanal, 467Mb

Editör Puanı


7,0

Genislik Yukseklik


1920-800

sürüm


x264 | 1080P




o Bolum 2


Film Detayları

O Bölüm 2, seytan palyaçonun geri dönmesi ile yirmi yedi yıl sonra yeniden bir araya gelen Ezikler Kulübü üyelerinin hikayesini konu ediyor. Aldığı yenilginin üzerinden geçen yirmi yedi yılın ardından Pennywise, Derry kasabasına geri döner. Ezikler Kulübü’nün üyelerinin her biri bir yana savrulmuş, sadece Mike kasabada yaşamını sürdürmeye devam etmektedir. Mike, tıpkı yıllar önce olduğu gibi insanların ortadan kaybolmaya başlaması sonucu arkadaşlarını kasabaya çağırmaya karar verir. Pennywise'ın geri dönüşü sebebiyle, çocukken söz verdikleri gibi kasabaya geri dönen yetişkinler bir kez daha şeytani palyaço ile karşı karşıyadır. Ancak yıllar sonra bir araya gelen ekibin birbirlerini yeniden tanımaları da bir hayli zor olur. Artık evli bir adam olan Bill ve sevgilisinden şiddet gören Beverly başta olmak üzere, tanıştıklarından bambaşka hayatlar yaşayan eski arkadaşlar, bir kez daha el ele vermek zorunda kalır.

O Bölüm 2 (It Chapter Two) Filmi Imdb'den 120,000 kişi tarafından oylandı ve 6,8 puan aldı. Bu film için editör puanı 7,0 olarak belirlendi. İyi Seyirler!


Teknik Detaylar


Kod :
General
Complete name                            : O.Bölüm.2.2019.m1080p.WEB-DL.x264.TR.Filmbol.mkv
Format                                   : Matroska
Format version                           : Version 4 / Version 2
File size                                : 2.85 GiB
Duration                                 : 2h 50mn
Overall bit rate                         : 2 401 Kbps
Movie name                               : O Bölüm 2 (2019) - Filmbol.org
Encoded date                             : UTC 2019-11-25 02:35:43
Writing application                      : mkvmerge v35.0.0 ('All The Love In The World') 64-bit
Writing library                          : libebml v1.3.9 + libmatroska v1.5.2

Video
ID                                       : 1
Format                                   : AVC
Format/Info                              : Advanced Video Codec
Format profile                           : Main@L4
Format settings, CABAC                   : Yes
Format settings, ReFrames                : 2 frames
Codec ID                                 : V_MPEG4/ISO/AVC
Duration                                 : 2h 49mn
Bit rate                                 : 2 024 Kbps
Width                                    : 1 920 pixels
Height                                   : 800 pixels
Display aspect ratio                     : 2.40:1
Frame rate mode                          : Constant
Frame rate                               : 23.976 (24000/1001) fps
Color space                              : YUV
Chroma subsampling                       : 4:2:0
Bit depth                                : 8 bits
Scan type                                : Progressive
Bits/(Pixel*Frame)                       : 0.055
Stream size                              : 2.39 GiB (84%)
Title                                    : 1080P - Filmbol.org
Default                                  : Yes
Forced                                   : No

Audio
ID                                       : 2
Format                                   : AC-3
Format/Info                              : Audio Coding 3
Mode extension                           : CM (complete main)
Format settings, Endianness              : Big
Codec ID                                 : A_AC3
Duration                                 : 2h 50mn
Bit rate mode                            : Constant
Bit rate                                 : 384 Kbps
Channel(s)                               : 6 channels
Channel positions                        : Front: L C R, Side: L R, LFE
Sampling rate                            : 48.0 KHz
Frame rate                               : 31.250 fps (1536 spf)
Compression mode                         : Lossy
Stream size                              : 467 MiB (16%)
Title                                    : Türkçe - Filmbol.org
Language                                 : Turkish
Default                                  : Yes
Forced                                   : Yes

Film Detayları


O Bolum 2

O Bolum 2

O Bolum 2


Film Fragmanı


Film Detayları

Mini 1080P İndir



Uptobox ile indir

LetsUpload ile indir

DosyaUpload ile indir

Mega ile indir

Şuan Offine!
Şuan Offine!
kyaaaa76 Uzman Üye
**
Uzman Üye

  • Konular0
  • Mesajlar14
  • Rep puanı 0
hoşş good
Şuan Offine!
Şuan Offine!
caner Süper Üye
***
Super Üye

  • Konular0
  • Mesajlar52
  • Rep puanı 0
teşekkürler
Şuan Offine!
Şuan Offine!
asadsasdasda Yeni Üye
*
Üye

  • Konular0
  • Mesajlar4
  • Rep puanı 0
SUPERRRRR
Şuan Offine!
Şuan Offine!
ahmetyee1 Süper Üye
***
Super Üye

  • Konular3
  • Mesajlar54
  • Rep puanı 0
köpek geliyo aklıma lan
Şuan Offine!
Şuan Offine!
Hellenger28 Uzman Üye
**
Uzman Üye

  • Konular0
  • Mesajlar15
  • Rep puanı 0
Birinciside guzeldi bu da ayni seviyede ??
Şuan Offine!
Şuan Offine!
aiboy2 Yeni Üye
*
Üye

  • Konular0
  • Mesajlar2
  • Rep puanı 0
Çok iyi bee
Şuan Offine!
Şuan Offine!
musti79 Uzman Üye
**
Uzman Üye

  • Konular0
  • Mesajlar16
  • Rep puanı 0
paylaşım için teşekkürler
Şuan Offine!
Şuan Offine!
hodohi2108 Yeni Üye
*
Üye

  • Konular0
  • Mesajlar2
  • Rep puanı 0
Saçma olmuş
Şuan Offine!
Şuan Offine!
TRKeNe Yeni Üye
*
Üye

  • Konular0
  • Mesajlar5
  • Rep puanı 0
Very nice


Konu ile Alakalı Benzer Konular
Konular Yazar Yorumlar Okunma Son Yorum
Filmin Yayınlanma Tarihi: 2019
Ralph ve İnternet (Ralph Breaks the Internet) Türkçe Dublaj BLURAY m1080P İndir BroserBros 15 1,097 21-11-2020, Saat: 18:10
Son Yorum: miyaavc
Filmin Yayınlanma Tarihi: 2018
Venom: Zehirli Öfke (2018) Türkçe Dublaj Bluray m1080P İndir DRMOV 43 4,147 19-11-2020, Saat: 22:42
Son Yorum: Cyberboi84
Filmin Yayınlanma Tarihi: 2007
Harry Potter ve Zümrüdüanka Yoldaşlığı (2007) Türkçe Dublaj BLURAY m1080P İndir BroserBros 16 1,216 17-11-2020, Saat: 18:33
Son Yorum: bllsr
Filmin Yayınlanma Tarihi: 2005
Harry Potter ve Ateş Kadehi (Goblet of Fire) Türkçe Dublaj BLURAY 1080P İndir BroserBros 27 2,372 17-11-2020, Saat: 12:17
Son Yorum: bllsr
Filmin Yayınlanma Tarihi: 2018
Örümcek Adam: Örümcek Evreninde (Spider-Man) Türkçe Dublaj BLURAY m1080P İndir BroserBros 34 2,543 15-11-2020, Saat: 16:06
Son Yorum: enesakkaya7007

Hızlı Menü: