Filmbol Forum Film İndir BRRip XviD v Nuh: Büyük Tufan (Noah) - 2014 - TR - BRRip XviD
Moderatör Alımları Başladı! Başvuru yapmak için tıklayın.
Filmbol Premium'da %50'e varan indirim fırsatı!
Nuh: Büyük Tufan (Noah) - 2014 - TR - BRRip XviD
BroserBros
Nuh: Büyük Tufan (Noah) - 2014 - TR - BRRip XviD
0
112
  • Derecelendirme: 0/5 - 0 oy
  • 1
  • 2
  • 3
  • 4
  • 5
Konuyu Okuyanlar:1 Ziyaretçi
Şuan Online!
Filmin Yayınlanma Tarihi: 2014 
Şuan Online!
BroserBros Kurucu Admin
*******
Admin

Vizyon Tarihi


03 Nisan 2014

imdb puanı


5,8 / 240,000

süre


138 dakika

Editör Puanı


6,5 / 10

Video Format: Avi


Audio Video Interleave (.AVI)

Ses Kodek: MP3


MPEG-1 Audio Layer III (MP3)

sürüm


h263 | BRRip XviD

Boyutlar


1,37 GB



 Nuh: Büyük Tufan



Kabil'in soyundan gelen insanoğlu, kuşaklardır Yaradan'ın çizdiği iyilik yolundan sapmış, dünyanın tüm güzelliklerini ve nimetlerini sonuna kadar emip tüketerek yeryüzünü yaşanmaz hale getirmiştir. Dahası bir parça et için her türlü ahlaksızlık, hırsızlık, cinayet ve kaos normal hale gelmiştir. İnsanlığın bu sefil hali karşısında Nuh rüyasında, Yaradan'ın kendisini yaşanacak büyük bir tufana karşı uyardığını görür. Yaradan ondan büyük bir gemi inşa etmesini ve yeryüzünde yaşayan tüm hayvan cinslerinden bir çift almasını emreder. Bu gemi aynı zamanda ailesinin de tek kurtuluşu olacaktır. Tufanın yaklaşmakta olduğunu öğrenen sapkın insanoğlu ise geminin içine girmek için Nuh'a karşı saldırıya geçecektir....

Nuh: Büyük Tufan (2014) (Noah) Filmi Imdb'den 240,000 kişi tarafından oylandı ve 5,8 puan aldı. Bu film için editör puanı 6,5 olarak belirlendi. İyi Seyirler!

Teknik Detaylar

Kod :
General
Complete name                            : /root/Desktop/asd/Nuh.Büyük.Tufan.2014.BRRip.XviD.TR.Filmbol.avi
Format                                  : AVI
Format/Info                              : Audio Video Interleave
File size                                : 1.37 GiB
Duration                                : 2h 17mn
Overall bit rate                        : 1 420 Kbps
Writing application                      : VirtualDubMod 1.5.10.2 (build 2542/release)
Writing library                          : VirtualDubMod build 2542/release

Video
ID                                      : 0
Format                                  : MPEG-4 Visual
Format profile                          : Advanced Simple@L5
Format settings, BVOP                    : 1
Format settings, QPel                    : No
Format settings, GMC                    : No warppoints
Format settings, Matrix                  : Default (H.263)
Muxing mode                              : Packed bitstream
Codec ID                                : XVID
Codec ID/Hint                            : XviD
Duration                                : 2h 17mn
Bit rate                                : 1 282 Kbps
Width                                    : 640 pixels
Height                                  : 352 pixels
Display aspect ratio                    : 16:9
Frame rate                              : 23.976 (23976/1000) fps
Color space                              : YUV
Chroma subsampling                      : 4:2:0
Bit depth                                : 8 bits
Scan type                                : Progressive
Compression mode                        : Lossy
Bits/(Pixel*Frame)                      : 0.237
Stream size                              : 1.24 GiB (90%)
Writing library                          : XviD 64

Audio
ID                                      : 1
Format                                  : MPEG Audio
Format version                          : Version 1
Format profile                          : Layer 3
Mode                                    : Joint stereo
Mode extension                          : MS Stereo
Codec ID                                : 55
Codec ID/Hint                            : MP3
Duration                                : 2h 17mn
Bit rate mode                            : Constant
Bit rate                                : 128 Kbps
Channel(s)                              : 2 channels
Sampling rate                            : 48.0 KHz
Compression mode                        : Lossy
Stream size                              : 126 MiB (9%)
Alignment                                : Aligned on interleaves
Interleave, duration                    : 42 ms (1.00 video frame)
Interleave, preload duration            : 504 ms
Writing library                          : LAME3.99r
Encoding settings                        : -m j -V 4 -q 2 -lowpass 17 -b 128

Film Detayları


 Nuh: Büyük Tufan

 Nuh: Büyük Tufan

 Nuh: Büyük Tufan


Film Fragmanı


Film Detayları


Uptobox ile indir

1Fichier ile indir

1Fichier'den İndiremiyor musun? Tıklayın!


Mega ile indir

Bunun için üzgünüz ancak, bu linke sadece premium üyeler erişebilir.

Filmbol Cloud



Konu ile Alakalı Benzer Konular
Konular Yazar Yorumlar Okunma Son Yorum
Filmin Yayınlanma Tarihi: 2018
Gözbebeğim (Pupille) - 2018 - TR - BRRip XviD BroserBros 0 5 2 saat önce
Son Yorum: BroserBros
Filmin Yayınlanma Tarihi: 2019
Umut Vadisi (Hope Gap) - 2019 - TR - BRRip XviD BroserBros 0 6 2 saat önce
Son Yorum: BroserBros
Filmin Yayınlanma Tarihi: 2019
Cep Herkülü: Naim Süleymanoğlu (Cep Herkülü: Naim Süleymanoğlu) - 2019 - TR - BRRip XviD BroserBros 0 86 15-09-2020, Saat: 21:51
Son Yorum: BroserBros
Filmin Yayınlanma Tarihi: 2020
Berlin, Berlin (Berlin, Berlin) - 2020 - TR - BRRip XviD BroserBros 0 80 15-09-2020, Saat: 18:15
Son Yorum: BroserBros
Filmin Yayınlanma Tarihi: 2020
Malibu Rescue: Yeni Dalga (Malibu Rescue: The Next Wave) - 2020 - TR - BRRip XviD BroserBros 0 133 13-09-2020, Saat: 20:54
Son Yorum: BroserBros

Hızlı Menü: