Hoşgeldin, Ziyaretçi: Giriş Yap Üye Ol


Konuyu Oyla:
  • Derecelendirme: 0/5 - 0 oy
  • 1
  • 2
  • 3
  • 4
  • 5
Title: Murder Mystery (Murder Mystery) Türkçe Dublaj m1080P İndir
Gösterim Stili
#1
Filmin Yayınlanma Tarihi: 2019 

indirme türü


Bulut + Premium

vizyon tarihi


14 Haziran 2019

Boyutlar


1,61

diller


[TR]

altyazilar


Yok [Eklenebilir]

Video Format: Mkv


Matroska (.MKV)

Video Detay


MPEG-4, 1973 Kbps, 1,35GB

imdb puanı


6,0 / 10,0 / 50,000

süre


97 dakika

Ses Kodek: AC3


Audio Coding 3 (AC3)

Ses Detay


384 Kbps, 6 Kanal, 269Mb

Editör Puanı


6,2

Genislik Yukseklik


1920-1080

sürüm


x264 | 1080P-NF-WEBDL


Film Detayları

Bir New York polisi ve karısı, balayı ve tatil için avrupaya giderler. Ancak gittikleri yerde bir milyarder öldürülür ve tatil hiç istedikleri gibi gitmez.

Murder Mystery (Murder Mystery) Filmi İmdb'den 50,000 kişi tarafından oylandı ve 6,0 puan aldı. Bu film için editör puanı 6,2 olarak belirlendi. İyi Seyirler!


Teknik Detaylar
Kod:
General
Complete name                            : Murder.Mystery.2019.m1080p.NF.WEB-DL.x264.TR.Filmbol.mkv
Format                                   : Matroska
Format version                           : Version 4 / Version 2
File size                                : 1.61 GiB
Duration                                 : 1h 37mn
Overall bit rate                         : 2 359 Kbps
Movie name                               : Murder Mysrety
Encoded date                             : UTC 2019-07-09 08:00:36
Writing application                      : mkvmerge v35.0.0 ('All The Love In The World') 64-bit
Writing library                          : libebml v1.3.9 + libmatroska v1.5.2

Video
ID                                       : 1
Format                                   : AVC
Format/Info                              : Advanced Video Codec
Format profile                           : Main@L4
Format settings, CABAC                   : Yes
Format settings, ReFrames                : 2 frames
Codec ID                                 : V_MPEG4/ISO/AVC
Duration                                 : 1h 37mn
Bit rate                                 : 1 973 Kbps
Width                                    : 1 920 pixels
Height                                   : 1 080 pixels
Display aspect ratio                     : 16:9
Frame rate mode                          : Constant
Frame rate                               : 24.000 fps
Color space                              : YUV
Chroma subsampling                       : 4:2:0
Bit depth                                : 8 bits
Scan type                                : Progressive
Bits/(Pixel*Frame)                       : 0.040
Stream size                              : 1.35 GiB (84%)
Title                                    : 1080P - Filmbol.org
Default                                  : Yes
Forced                                   : No

Audio
ID                                       : 2
Format                                   : AC-3
Format/Info                              : Audio Coding 3
Mode extension                           : CM (complete main)
Format settings, Endianness              : Big
Codec ID                                 : A_AC3
Duration                                 : 1h 37mn
Bit rate mode                            : Constant
Bit rate                                 : 384 Kbps
Channel(s)                               : 6 channels
Channel positions                        : Front: L C R, Side: L R, LFE
Sampling rate                            : 48.0 KHz
Frame rate                               : 31.250 fps (1536 spf)
Compression mode                         : Lossy
Stream size                              : 269 MiB (16%)
Title                                    : Türkçe - Filmbol.org
Language                                 : Turkish
Default                                  : Yes
Forced                                   : No

Text
ID                                       : 3
Format                                   : UTF-8
Codec ID                                 : S_TEXT/UTF8
Codec ID/Info                            : UTF-8 Plain Text
Duration                                 : 1h 36mn
Bit rate                                 : 0 bps
Count of elements                        : 19
Stream size                              : 468 Bytes (0%)
Title                                    : KISIM
Language                                 : Turkish
Default                                  : Yes
Forced                                   : Yes




Film Detayları


Murder Mystery Turkce Dublaj Indir

Murder Mystery Turkce Dublaj Indir

Murder Mystery Turkce Dublaj Indir

Murder Mystery Turkce Dublaj Indir

Murder Mystery Turkce Dublaj Indir


Film Fragmanı


Film Detayları

Mini 1080P İndir


Uptobox ile indir

CloudRu ile indir

ngA0
Mega linki şuan da gizli. Kullanıma açmak için konuya yorum yapın ve ardından sayfayı yenileyin. Ayrıca bu linki açtığınızda reklamsız olarak erişebileceğinizi unutmayın.

Mega



LetsUpload ile indir

Mega Upload ile indir

Mediafire linki şuan da gizli. Kullanıma açmak için konuya yorum yapın ve ardından sayfayı yenileyin. Ayrıca bu linki açtığınızda reklamsız olarak erişebileceğinizi unutmayın.

Mediafire


Google Drive linki şuan da gizli. Kullanıma açmak için konuya yorum yapın ve ardından sayfayı yenileyin. Ayrıca bu linki açtığınızda reklamsız olarak erişebileceğinizi unutmayın.

Google Drive


 
Cevapla
#2
teşekkürler
 
Cevapla
  


Konu ile Alakalı Benzer Konular
Konular Yazar Yorumlar Okunma Son Yorum
Filmin Yayınlanma Tarihi: 2018 Çakallarla Dans 5 (2018) Yerli Film BLURAY m1080P İndir BroserBros 10 362 2 saat önce
Son Yorum: bakalım
  Çat Kapı Aşk (2019) Yerli Film BLURAY m1080P İndir BroserBros 4 245 17-01-2020, Saat: 20:38
Son Yorum: yasin2003
Filmin Yayınlanma Tarihi: 2018 Şipşak Aile (Instant Family) Türkçe Dublaj BLURAY m1080P İndir BroserBros 7 371 11-01-2020, Saat: 15:08
Son Yorum: ahkna
Filmin Yayınlanma Tarihi: 2016 Keanu Türkçe Dublaj m1080P İndir BroserBros 1 737 07-01-2020, Saat: 20:37
Son Yorum: Polatemirhan
Filmin Yayınlanma Tarihi: 2016 Uluslararası Bir Suikastçının Gerçek Hatıraları Türkçe Dublaj m1080P İndir BroserBros 2 796 06-01-2020, Saat: 21:12
Son Yorum: AliSavci

Hızlı Menü:


Browsing: 1 Ziyaretçi