Filmbol Forum Film İndir BRRip XviD v Mumya (The Mummy) - 2017 - TR - BRRip XviD
Moderatör Alımları Başladı! Başvuru yapmak için tıklayın.
Filmbol Premium'da %50'e varan indirim fırsatı!
Mumya (The Mummy) - 2017 - TR - BRRip XviD
BroserBros
Mumya (The Mummy) - 2017 - TR - BRRip XviD
1
152
  • Derecelendirme: 0/5 - 0 oy
  • 1
  • 2
  • 3
  • 4
  • 5
Konuyu Okuyanlar:1 Ziyaretçi
Şuan Online!
Filmin Yayınlanma Tarihi: 2017 
Şuan Online!
BroserBros Kurucu Admin
*******
Admin

Vizyon Tarihi


09 Haziran 2017

imdb puanı


5,4 / 170,000

süre


110 dakika

Editör Puanı


7,0 / 10

Video Format: Avi


Audio Video Interleave (.AVI)

Ses Kodek: MP3


MPEG-1 Audio Layer III (MP3)

sürüm


h263 | BRRip XviD

Boyutlar


1,36 GB



 Mumya



Bir mısır kraliçesi, tahtın tek varisidir ancak bir gün çıkagelen bir erkek bebek ile tahtı sallantıya gider. Bu durumda kraliçe'de gücün ancak kişi tarafından elde edebileceğini anlar ve şeytan ile anlaşma yaparak erkek kardeşini ve ailesini öldürür fakat bu başarılı olmasına yetmez, gardiyanlar tarafından durum farkedilerek geç olmadan kraliçe ele geçirilir ve diri diri mumyalanarak gömülür ve günümüzde bu kraliçenin mezarı tekrar açılacaktır...

Mumya (2017) (The Mummy) Filmi Imdb'den 170,000 kişi tarafından oylandı ve 5,4 puan aldı. Bu film için editör puanı 7,0 olarak belirlendi. İyi Seyirler!

Teknik Detaylar

Kod :
General
Complete name                            : /root/Desktop/3/Mumya.2017.BRRip.XviD.TR.Flmbol.avi
Format                                  : AVI
Format/Info                              : Audio Video Interleave
File size                                : 1.36 GiB
Duration                                : 1h 50mn
Overall bit rate                        : 1 774 Kbps
Writing application                      : VirtualDubMod 1.5.10.3 | www.virtualdub-fr.org || (build 2550/release)
Writing library                          : VirtualDubMod build 2550/release

Video
ID                                      : 0
Format                                  : MPEG-4 Visual
Format profile                          : Advanced Simple@L5
Format settings, BVOP                    : 1
Format settings, QPel                    : No
Format settings, GMC                    : No warppoints
Format settings, Matrix                  : Custom
Codec ID                                : XVID
Codec ID/Hint                            : XviD
Duration                                : 1h 50mn
Bit rate                                : 1 572 Kbps
Width                                    : 720 pixels
Height                                  : 304 pixels
Display aspect ratio                    : 2.35:1
Frame rate                              : 23.976 (24000/1001) fps
Color space                              : YUV
Chroma subsampling                      : 4:2:0
Bit depth                                : 8 bits
Scan type                                : Progressive
Compression mode                        : Lossy
Bits/(Pixel*Frame)                      : 0.300
Stream size                              : 1.21 GiB (89%)
Writing library                          : XviD 67

Audio
ID                                      : 1
Format                                  : AC-3
Format/Info                              : Audio Coding 3
Mode extension                          : CM (complete main)
Format settings, Endianness              : Big
Codec ID                                : 2000
Duration                                : 1h 50mn
Bit rate mode                            : Constant
Bit rate                                : 192 Kbps
Channel(s)                              : 2 channels
Channel positions                        : Front: L R
Sampling rate                            : 48.0 KHz
Frame rate                              : 31.250 fps (1536 spf)
Compression mode                        : Lossy
Stream size                              : 151 MiB (11%)
Alignment                                : Split accross interleaves
Interleave, duration                    : 42 ms (1.00 video frame)
Interleave, preload duration            : 500 ms

Film Detayları


 Mumya

 Mumya

 Mumya


Film Fragmanı


Film Detayları


Uptobox ile indir

1Fichier ile indir

1Fichier'den İndiremiyor musun? Tıklayın!


Mega ile indir

Bunun için üzgünüz ancak, bu linke sadece premium üyeler erişebilir.

Filmbol Cloud

Şuan Offine!
Şuan Offine!
sectechno Süper Üye
***
Super Üye

  • Konular9
  • Mesajlar66
  • Rep puanı 0
Teşekkürler BroserBros.İyi çalışmalar.


Konu ile Alakalı Benzer Konular
Konular Yazar Yorumlar Okunma Son Yorum
Filmin Yayınlanma Tarihi: 2018
Gözbebeğim (Pupille) - 2018 - TR - BRRip XviD BroserBros 0 3 1 saat önce
Son Yorum: BroserBros
Filmin Yayınlanma Tarihi: 2019
Umut Vadisi (Hope Gap) - 2019 - TR - BRRip XviD BroserBros 0 4 1 saat önce
Son Yorum: BroserBros
Filmin Yayınlanma Tarihi: 2019
Cep Herkülü: Naim Süleymanoğlu (Cep Herkülü: Naim Süleymanoğlu) - 2019 - TR - BRRip XviD BroserBros 0 85 15-09-2020, Saat: 21:51
Son Yorum: BroserBros
Filmin Yayınlanma Tarihi: 2020
Berlin, Berlin (Berlin, Berlin) - 2020 - TR - BRRip XviD BroserBros 0 80 15-09-2020, Saat: 18:15
Son Yorum: BroserBros
Filmin Yayınlanma Tarihi: 2020
Malibu Rescue: Yeni Dalga (Malibu Rescue: The Next Wave) - 2020 - TR - BRRip XviD BroserBros 0 133 13-09-2020, Saat: 20:54
Son Yorum: BroserBros

Hızlı Menü: