Filmbol Forum Film İndir 720P v Muhabbet Kuşları (The Lovebirds) - 2020 - TR+ORG - 720P
Moderatör Alımları Başladı! Başvuru yapmak için tıklayın.
Filmbol Premium'da %50'e varan indirim fırsatı!
Muhabbet Kuşları (The Lovebirds) - 2020 - TR+ORG - 720P
BroserBros
Muhabbet Kuşları (The Lovebirds) - 2020 - TR+ORG - 720P
0
135
  • Derecelendirme: 0/5 - 0 oy
  • 1
  • 2
  • 3
  • 4
  • 5
Konuyu Okuyanlar:1 Ziyaretçi
Şuan Online!
Filmin Yayınlanma Tarihi: 2020 
Şuan Online!
BroserBros Kurucu Admin
*******
Admin

Vizyon Tarihi


22 Mayıs 2020

imdb puanı


6,0 / 10,000

süre


86 dakika

Editör Puanı


6,5 / 10

Video Format: Mkv


Matroska (.MKV)

Ses Kodek: AC3


Audio Coding 3 (AC3)

sürüm


x264 | 720P | BluRay

Boyutlar


1,09 GB



 Muhabbet Kuşları



Pekte iyi ilişkileri olmayan bu çiftin ayrılmaya kadar giden kötü bir ilişkileri vardır ve bir gün bu ilişkiyi düzeltebilecek bir şey olur. Kendilerini bir cinayet vakasının içersinde bulan çift, şimdi birlikte olabileceklerini tekrar gözden geçirebilecek olan çift bakalım gerçekten de bunu başarabilecekler midir...

Muhabbet Kuşları (2020) (The Lovebirds) Filmi Imdb'den 10,000 kişi tarafından oylandı ve 6,0 puan aldı. Bu film için editör puanı 6,5 olarak belirlendi. İyi Seyirler!

Teknik Detaylar

Kod :
General
Unique ID                                : 282695578068294569342012202493463038 (0x3671F7D578906CA6F2E1704B7CC9FE)
Complete name                            : /root/Desktop/Muhabbet.Kuşları.2020.720p.WEB-DL.x264.TR.ENG.Filmbol.mkv
Format                                  : Matroska
Format version                          : Version 4 / Version 2
File size                                : 1.09 GiB
Duration                                : 1h 27mn
Overall bit rate                        : 1 794 Kbps
Movie name                              : Muhabbet Kuşları - The Lovebirds - 2020 | Filmbol.org
Encoded date                            : UTC 2020-05-24 15:21:41
Writing application                      : mkvmerge v8.8.0 ('Wind at my back') 64bit
Writing library                          : libebml v1.3.3 + libmatroska v1.4.4

Video
ID                                      : 1
Format                                  : AVC
Format/Info                              : Advanced Video Codec
Format profile                          : Main@L3.1
Format settings, CABAC                  : Yes
Format settings, ReFrames                : 2 frames
Codec ID                                : V_MPEG4/ISO/AVC
Duration                                : 1h 27mn
Bit rate                                : 1 216 Kbps
Width                                    : 1 280 pixels
Height                                  : 720 pixels
Display aspect ratio                    : 16:9
Frame rate mode                          : Constant
Frame rate                              : 23.976 (24000/1001) fps
Color space                              : YUV
Chroma subsampling                      : 4:2:0
Bit depth                                : 8 bits
Scan type                                : Progressive
Bits/(Pixel*Frame)                      : 0.055
Stream size                              : 758 MiB (68%)
Title                                    : Filmbol.org
Default                                  : Yes
Forced                                  : No

Audio #1
ID                                      : 2
Format                                  : AC-3
Format/Info                              : Audio Coding 3
Mode extension                          : CM (complete main)
Format settings, Endianness              : Big
Codec ID                                : A_AC3
Duration                                : 1h 27mn
Bit rate mode                            : Constant
Bit rate                                : 384 Kbps
Channel(s)                              : 6 channels
Channel positions                        : Front: L C R, Side: L R, LFE
Sampling rate                            : 48.0 KHz
Frame rate                              : 31.250 fps (1536 spf)
Compression mode                        : Lossy
Stream size                              : 240 MiB (21%)
Title                                    : Filmbol.org
Language                                : Turkish
Default                                  : Yes
Forced                                  : No

Audio #2
ID                                      : 3
Format                                  : AC-3
Format/Info                              : Audio Coding 3
Mode extension                          : CM (complete main)
Format settings, Endianness              : Big
Codec ID                                : A_AC3
Duration                                : 1h 27mn
Bit rate mode                            : Constant
Bit rate                                : 192 Kbps
Channel(s)                              : 2 channels
Channel positions                        : Front: L R
Sampling rate                            : 48.0 KHz
Frame rate                              : 31.250 fps (1536 spf)
Compression mode                        : Lossy
Stream size                              : 120 MiB (11%)
Title                                    : Filmbol.org
Language                                : English
Default                                  : No
Forced                                  : No

Text #1
ID                                      : 4
Format                                  : UTF-8
Codec ID                                : S_TEXT/UTF8
Codec ID/Info                            : UTF-8 Plain Text
Duration                                : 1h 25mn
Bit rate                                : 0 bps
Count of elements                        : 13
Stream size                              : 304 Bytes (0%)
Title                                    : Filmbol.org
Language                                : Turkish
Default                                  : Yes
Forced                                  : Yes

Text #2
ID                                      : 5
Format                                  : UTF-8
Codec ID                                : S_TEXT/UTF8
Codec ID/Info                            : UTF-8 Plain Text
Duration                                : 1h 25mn
Bit rate                                : 66 bps
Count of elements                        : 1457
Stream size                              : 42.0 KiB (0%)
Title                                    : Filmbol.org
Language                                : Turkish
Default                                  : No
Forced                                  : No

Film Detayları


 Muhabbet Kuşları

 Muhabbet Kuşları

 Muhabbet Kuşları


Film Fragmanı


Film Detayları

Uptobox ile indir

1Fichier ile indir

1Fichier'den İndiremiyor musun? Tıklayın!


Bunun için üzgünüz ancak, bu linke sadece premium üyeler erişebilir.

Filmbol Cloud



Konu ile Alakalı Benzer Konular
Konular Yazar Yorumlar Okunma Son Yorum
Filmin Yayınlanma Tarihi: 2018
Gözbebeğim (Pupille) - 2018 - TR+ORG - 720P BroserBros 0 2 1 saat önce
Son Yorum: BroserBros
  Umut Vadisi (Hope Gap) - 2019 - TR+ORG - 720P BroserBros 0 3 1 saat önce
Son Yorum: BroserBros
Filmin Yayınlanma Tarihi: 2020
Berlin, Berlin (Berlin, Berlin) - 2020 - TR+ORG - 720P BroserBros 0 89 15-09-2020, Saat: 18:15
Son Yorum: BroserBros
Filmin Yayınlanma Tarihi: 2020
Malibu Rescue: Yeni Dalga (Malibu Rescue: The Next Wave) - 2020 - TR+ORG - 720P BroserBros 0 128 13-09-2020, Saat: 20:54
Son Yorum: BroserBros
Filmin Yayınlanma Tarihi: 2020
Masallardan Geriye Kalan (Yerli) - 2020 - TR+ORG - 720P BroserBros 0 370 01-09-2020, Saat: 21:49
Son Yorum: BroserBros

Hızlı Menü: