Filmbol Forum Film İndir BRRip XviD v Mogli: Orman Çocuğu (Mowgli) Türkçe Dublaj Brrip Xvid İndir
Filmbol'da moderatör olmak ister misiniz? Bizimle iletişime geçmek için tıklayın!
Mogli: Orman Çocuğu (Mowgli) Türkçe Dublaj Brrip Xvid İndir
BroserBros
Mogli: Orman Çocuğu (Mowgli) Türkçe Dublaj Brrip Xvid İndir
0
369
  • Derecelendirme: 0/5 - 0 oy
  • 1
  • 2
  • 3
  • 4
  • 5
Konuyu Okuyanlar:1 Ziyaretçi
Şuan Online!
Filmin Yayınlanma Tarihi: 2018 
Şuan Online!
BroserBros Kurucu Admin
*******
Admin

indirme türü


Bulut + Premium

Vizyon Tarihi


07 Aralık 2018

Boyutlar


1,25

diller


[TR]

altyazilar


KISIM [Eklenebilir]

Video Format: Avi


Audio Video Interleave (.AVI)

Video Detay


MPEG-4, 1584 Kbps, 1,16 GB

imdb puanı


6,5 / 10,0 / 50,000

süre


104 dakika

Ses Kodek: MP3


MPEG-1 Audio Layer III (MP3)

Ses Detay


128 Kbps, 2 Kanal, 96Mb

Editör Puanı


7,0

Genislik Yukseklik


720-304

sürüm


h263 | Brrip Xvid




Mogli


Film Detayları

Film, Hindistan'ın ormanlarındaki bir kurt sürüsü tarafından yetiştirilen insan çocuğu Mowgli'nin yetişmesini konu alıyor. Mowgli büyüme sürecinde ormanın sert kurallarını öğrenirken, ayı Baloo ve panter Bagheera'nın koruması altındadır. Mowgli ormandaki hayvanlar tarafından kendilerinden biri olarak kabul edilir. Onu kabul etmeyen tek orman sakini ise korkunç kaplan Shere Khan'dır. Ancak Mowgli insan kökeni ile yüz yüze geldiğinde, ormanda gizlenen daha büyük tehlikeler olabilir...

Mogli: Orman Çocuğu (Mowgli) Filmi Imdb'den 50,000 kişi tarafından oylandı ve 6,5 puan aldı. Bu film için editör puanı 7,0 olarak belirlendi. İyi Seyirler!


Teknik Detaylar

Kod :
General
Complete name                            : Mogli.Orman.Çocugu.2018.WEBRip.XviD.TR.Filmbol.avi
Format                                   : AVI
Format/Info                              : Audio Video Interleave
File size                                : 1.26 GiB
Duration                                 : 1h 44mn
Overall bit rate                         : 1 725 Kbps

Video
ID                                       : 0
Format                                   : MPEG-4 Visual
Format profile                           : Simple@L5
Format settings, BVOP                    : No
Format settings, QPel                    : No
Format settings, GMC                     : No warppoints
Format settings, Matrix                  : Default (H.263)
Codec ID                                 : XVID
Codec ID/Hint                            : XviD
Duration                                 : 1h 44mn
Bit rate                                 : 1 584 Kbps
Width                                    : 720 pixels
Height                                   : 304 pixels
Display aspect ratio                     : 2.40:1
Frame rate                               : 23.976 fps
Color space                              : YUV
Chroma subsampling                       : 4:2:0
Bit depth                                : 8 bits
Scan type                                : Progressive
Compression mode                         : Lossy
Bits/(Pixel*Frame)                       : 0.302
Stream size                              : 1.16 GiB (92%)
Writing library                          : Lavc58.1.100

Audio
ID                                       : 1
Format                                   : MPEG Audio
Format version                           : Version 1
Format profile                           : Layer 3
Mode                                     : Joint stereo
Mode extension                           : MS Stereo
Codec ID                                 : 55
Codec ID/Hint                            : MP3
Duration                                 : 1h 44mn
Bit rate mode                            : Constant
Bit rate                                 : 128 Kbps
Channel(s)                               : 2 channels
Sampling rate                            : 48.0 KHz
Compression mode                         : Lossy
Stream size                              : 96.0 MiB (7%)
Alignment                                : Aligned on interleaves
Interleave, duration                     : 24 ms (0.58 video frame)
Writing library                          : LAME3.99.5



Film Detayları


Mogli

Mogli

Mogli


Film Fragmanı


Film Detayları

Brrip İndir


Uptobox ile indir

LetsUpload ile indir

Mega ile indir

MediaFire ile indir



Konu ile Alakalı Benzer Konular
Konular Yazar Yorumlar Okunma Son Yorum
Filmin Yayınlanma Tarihi: 2020
Zengo (Zengo) - 2020 - TR - BRRip XviD BroserBros 0 21 , Saat: 14:08
Son Yorum: BroserBros
Filmin Yayınlanma Tarihi: 2019
Yalan Dolan (Yalan Dolan) - 2019 - TR - BRRip XviD BroserBros 0 20 , Saat: 13:57
Son Yorum: BroserBros
Filmin Yayınlanma Tarihi: 2019
Hatıra (The Souvenir) - 2019 - TR - BRRip XviD BroserBros 0 20 , Saat: 13:04
Son Yorum: BroserBros
Filmin Yayınlanma Tarihi: 2020
My Spy (My Spy) - 2020 - TR - BRRip XviD BroserBros 0 7 , Saat: 12:53
Son Yorum: BroserBros
Filmin Yayınlanma Tarihi: 2019
Luce (Luce) - 2019 - TR - BRRip XviD BroserBros 0 31 28-11-2020, Saat: 17:58
Son Yorum: BroserBros

Hızlı Menü: