Filmbol Forum Film İndir BRRip XviD v Mogli: Orman Çocuğu (Mowgli) Türkçe Dublaj Brrip Xvid İndir
Mega linklerinin şikayet edilmemesi için global erişime kapatıp sadece yorum yapanlara açıyoruz. Bu linkleri gizleme işlemini mecburen yapıyoruz ve yorum yapmanızın siteye değil size faydası vardır. Teşekürler yazmayı çok görüp, Random/Spam mesajlar atarak Mega linklerini açmaya çalışan kullanıcılara önce süresiz ban, devam ederse IP ban atacağız.
Filmbol'da moderatör olmak ister misiniz? Bizimle iletişime geçmek için tıklayın!
Mogli: Orman Çocuğu (Mowgli) Türkçe Dublaj Brrip Xvid İndir
BroserBros
Mogli: Orman Çocuğu (Mowgli) Türkçe Dublaj Brrip Xvid İndir
0
425
  • Derecelendirme: 0/5 - 0 oy
  • 1
  • 2
  • 3
  • 4
  • 5
Konuyu Okuyanlar:1 Ziyaretçi
Şuan Online!
Filmin Yayınlanma Tarihi: 2018 
WWW
Şuan Online!
BroserBros Kurucu Admin
*******
Admin




diller


[TR]

altyazilar


KISIM [Eklenebilir]

Video Format: Avi


Audio Video Interleave (.AVI)

Video Detay


MPEG-4, 1584 Kbps, 1,16 GB


Ses Kodek: MP3


MPEG-1 Audio Layer III (MP3)

Ses Detay


128 Kbps, 2 Kanal, 96Mb


Genislik Yukseklik


720-304





Mogli


Film Detayları

Film, Hindistan'ın ormanlarındaki bir kurt sürüsü tarafından yetiştirilen insan çocuğu Mowgli'nin yetişmesini konu alıyor. Mowgli büyüme sürecinde ormanın sert kurallarını öğrenirken, ayı Baloo ve panter Bagheera'nın koruması altındadır. Mowgli ormandaki hayvanlar tarafından kendilerinden biri olarak kabul edilir. Onu kabul etmeyen tek orman sakini ise korkunç kaplan Shere Khan'dır. Ancak Mowgli insan kökeni ile yüz yüze geldiğinde, ormanda gizlenen daha büyük tehlikeler olabilir...

Mogli: Orman Çocuğu (Mowgli) Filmi Imdb'den 50,000 kişi tarafından oylandı ve 6,5 puan aldı. Bu film için editör puanı 7,0 olarak belirlendi. İyi Seyirler!


Teknik Detaylar

Kod :
General
Complete name                            : Mogli.Orman.Çocugu.2018.WEBRip.XviD.TR.Filmbol.avi
Format                                   : AVI
Format/Info                              : Audio Video Interleave
File size                                : 1.26 GiB
Duration                                 : 1h 44mn
Overall bit rate                         : 1 725 Kbps

Video
ID                                       : 0
Format                                   : MPEG-4 Visual
Format profile                           : [email protected]
Format settings, BVOP                    : No
Format settings, QPel                    : No
Format settings, GMC                     : No warppoints
Format settings, Matrix                  : Default (H.263)
Codec ID                                 : XVID
Codec ID/Hint                            : XviD
Duration                                 : 1h 44mn
Bit rate                                 : 1 584 Kbps
Width                                    : 720 pixels
Height                                   : 304 pixels
Display aspect ratio                     : 2.40:1
Frame rate                               : 23.976 fps
Color space                              : YUV
Chroma subsampling                       : 4:2:0
Bit depth                                : 8 bits
Scan type                                : Progressive
Compression mode                         : Lossy
Bits/(Pixel*Frame)                       : 0.302
Stream size                              : 1.16 GiB (92%)
Writing library                          : Lavc58.1.100

Audio
ID                                       : 1
Format                                   : MPEG Audio
Format version                           : Version 1
Format profile                           : Layer 3
Mode                                     : Joint stereo
Mode extension                           : MS Stereo
Codec ID                                 : 55
Codec ID/Hint                            : MP3
Duration                                 : 1h 44mn
Bit rate mode                            : Constant
Bit rate                                 : 128 Kbps
Channel(s)                               : 2 channels
Sampling rate                            : 48.0 KHz
Compression mode                         : Lossy
Stream size                              : 96.0 MiB (7%)
Alignment                                : Aligned on interleaves
Interleave, duration                     : 24 ms (0.58 video frame)
Writing library                          : LAME3.99.5



Film Detayları


Mogli

Mogli

Mogli


Film Fragmanı


Film Detayları

Brrip İndir


Uptobox ile indir

LetsUpload ile indir

Mega linki şuan da gizli. Kullanıma açmak için konuya yorum yapın ve ardından sayfayı yenileyin.

Mega


MediaFire ile indir



Konu ile Alakalı Benzer Konular
Konular Yazar Yorumlar Okunma Son Yorum
Filmin Yayınlanma Tarihi: 2017
The Babysitter (The Babysitte) - 2017 - TR - BRRip XviD | tt4225622 TheSteeL 0 18 3 saat önce
Son Yorum: TheSteeL
Filmin Yayınlanma Tarihi: 2020
Bebek Bakıcısı: Katil Kraliçe (The Babysitter: Killer Queen) - 2020 - TR - BRRip XviD | tt11024272 TheSteeL 0 17 4 saat önce
Son Yorum: TheSteeL
Filmin Yayınlanma Tarihi: 2019
Charlie'nin Melekleri (Charlie's Angels) Türkçe Dublaj BRRip XviD indir BroserBros 2 261 6 saat önce
Son Yorum: sectechno
Filmin Yayınlanma Tarihi: 2019
Captain Marvel Türkçe Dublaj Brrip-Xvid İndir BroserBros 5 633 8 saat önce
Son Yorum: Strange
Filmin Yayınlanma Tarihi: 2000
Gladyatör (Gladiator) - 2000 - TR - BRRip XviD | tt0172495 BroserBros 2 220 8 saat önce
Son Yorum: Furkan61

Hızlı Menü: