Hoşgeldin, Ziyaretçi: Giriş Yap Üye Ol


Konuyu Oyla:
  • Derecelendirme: 0/5 - 0 oy
  • 1
  • 2
  • 3
  • 4
  • 5
Title: Mogli: Orman Çocuğu (Mowgli) Türkçe Dublaj BLURAY m720P İndir
Gösterim Stili
#1
Filmin Yayınlanma Tarihi: 2018 

indirme türü


Bulut + Premium

vizyon tarihi


07 Aralık 2018

Boyutlar


1,20

diller


[TR]

altyazilar


KISIM [Eklenebilir]

Video Format: Mkv


Matroska (.MKV)

Video Detay


MPEG-4, 1256 Kbps, 0,94 GB

imdb puanı


6,5 / 10,0 / 50,000

süre


104 dakika

Ses Kodek: AC3


Audio Coding 3 (AC3)

Ses Detay


384 Kbps, 6 Kanal, 288Mb

Editör Puanı


7,0

Genislik Yukseklik


1280-720

sürüm


x264 | 720P




Mogli


Film Detayları

Film, Hindistan'ın ormanlarındaki bir kurt sürüsü tarafından yetiştirilen insan çocuğu Mowgli'nin yetişmesini konu alıyor. Mowgli büyüme sürecinde ormanın sert kurallarını öğrenirken, ayı Baloo ve panter Bagheera'nın koruması altındadır. Mowgli ormandaki hayvanlar tarafından kendilerinden biri olarak kabul edilir. Onu kabul etmeyen tek orman sakini ise korkunç kaplan Shere Khan'dır. Ancak Mowgli insan kökeni ile yüz yüze geldiğinde, ormanda gizlenen daha büyük tehlikeler olabilir...

Mogli: Orman Çocuğu (Mowgli) Filmi Imdb'den 50,000 kişi tarafından oylandı ve 6,5 puan aldı. Bu film için editör puanı 7,0 olarak belirlendi. İyi Seyirler!


Teknik Detaylar

Kod:
General
Complete name                            : Mogli.Orman.Çocugu.2018.m720p.NF.WEB-DL.x264.TR.Filmbol.mkv
Format                                   : Matroska
Format version                           : Version 4 / Version 2
File size                                : 1.20 GiB
Duration                                 : 1h 44mn
Overall bit rate                         : 1 642 Kbps
Movie name                               : Mogli: Orman Çocugu (2018) - Filmbol.org
Encoded date                             : UTC 2019-09-04 11:42:14
Writing application                      : mkvmerge v35.0.0 ('All The Love In The World') 64-bit
Writing library                          : libebml v1.3.9 + libmatroska v1.5.2

Video
ID                                       : 1
Format                                   : AVC
Format/Info                              : Advanced Video Codec
Format profile                           : Main@L3.1
Format settings, CABAC                   : Yes
Format settings, ReFrames                : 2 frames
Codec ID                                 : V_MPEG4/ISO/AVC
Duration                                 : 1h 44mn
Bit rate                                 : 1 256 Kbps
Width                                    : 1 280 pixels
Height                                   : 720 pixels
Display aspect ratio                     : 16:9
Frame rate mode                          : Constant
Frame rate                               : 23.976 (24000/1001) fps
Color space                              : YUV
Chroma subsampling                       : 4:2:0
Bit depth                                : 8 bits
Scan type                                : Progressive
Bits/(Pixel*Frame)                       : 0.057
Stream size                              : 942 MiB (76%)
Title                                    : 720P - Filmbol.org
Default                                  : Yes
Forced                                   : No

Audio
ID                                       : 2
Format                                   : AC-3
Format/Info                              : Audio Coding 3
Mode extension                           : CM (complete main)
Format settings, Endianness              : Big
Codec ID                                 : A_AC3
Duration                                 : 1h 44mn
Bit rate mode                            : Constant
Bit rate                                 : 384 Kbps
Channel(s)                               : 6 channels
Channel positions                        : Front: L C R, Side: L R, LFE
Sampling rate                            : 48.0 KHz
Frame rate                               : 31.250 fps (1536 spf)
Compression mode                         : Lossy
Stream size                              : 288 MiB (23%)
Title                                    : Türkçe - Filmbol.org
Language                                 : Turkish
Default                                  : Yes
Forced                                   : No

Text
ID                                       : 3
Format                                   : UTF-8
Codec ID                                 : S_TEXT/UTF8
Codec ID/Info                            : UTF-8 Plain Text
Duration                                 : 33mn 35s
Bit rate                                 : 1 bps
Count of elements                        : 13
Stream size                              : 384 Bytes (0%)
Title                                    : KISIM
Language                                 : Turkish
Default                                  : Yes
Forced                                   : Yes



Film Detayları


Mogli

Mogli

Mogli


Film Fragmanı


Film Detayları

Mini 720P İndir


LetsUpload ile indir


Mega linki şuan da gizli. Kullanıma açmak için konuya yorum yapın ve ardından sayfayı yenileyin. Ayrıca bu linki açtığınızda reklamsız olarak erişebileceğinizi unutmayın.

Mega


f34q
Mediafire linki şuan da gizli. Kullanıma açmak için konuya yorum yapın ve ardından sayfayı yenileyin. Ayrıca bu linki açtığınızda reklamsız olarak erişebileceğinizi unutmayın.

Mediafire


 
Cevapla
#2
fsafsafsafsafsafas
 
Cevapla
#3
ne yazalım daha izlemedik
 
Cevapla
#4
İzlemedim heyecanla bekliyorum

Ekran görüntüleri oldukça kaliteli görünüyor
 
Cevapla
#5
selam güzeel film
 
Cevapla
#6
Vay be güzel animasyon, özgün.
 
Cevapla
#7
fefwefwer
 
Cevapla
  


Konu ile Alakalı Benzer Konular
Konular Yazar Yorumlar Okunma Son Yorum
Filmin Yayınlanma Tarihi: 2003 Karayip Korsanları: 1 (Pirates of the Caribbean: 1) Türkçe Dublaj m720P İndir BroserBros 8 5,109 27-01-2020, Saat: 13:31
Son Yorum: mertdemirefsanesi
Filmin Yayınlanma Tarihi: 2002 Harry Potter ve Sırlar Odası (Chamber of Secrets) Türkçe Dublaj BLURAY m720P İndir BroserBros 18 1,432 27-01-2020, Saat: 01:25
Son Yorum: Adrian69
Filmin Yayınlanma Tarihi: 2017 Karayip Korsanları :5 (Pirates Of Caribbean :5) Türkçe Dublaj m720P İndir DRMOV 36 2,915 25-01-2020, Saat: 18:33
Son Yorum: nvz
Filmin Yayınlanma Tarihi: 2011 Harry Potter ve Ölüm Yadigarları: Bölüm 2 (2011) Türkçe Dublaj BLURAY m720P İndi BroserBros 10 677 21-01-2020, Saat: 17:54
Son Yorum: mhmt_dursun
Filmin Yayınlanma Tarihi: 2010 Harry Potter ve Ölüm Yadigarları: Bölüm 1 (2010) Türkçe Dublaj BLURAY m720P İndir BroserBros 12 422 21-01-2020, Saat: 17:53
Son Yorum: mhmt_dursun

Hızlı Menü:


Browsing: 1 Ziyaretçi