Filmbol Forum Film İndir 720P v Mission: Impossible - Yansımalar (Fallout) Türkçe Dublaj m720P İndir
Moderatör Alımları Başladı! Başvuru yapmak için tıklayın.
Filmbol Premium'da %50'e varan indirim fırsatı!
Mission: Impossible - Yansımalar (Fallout) Türkçe Dublaj m720P İndir
DRMOV
Mission: Impossible - Yansımalar (Fallout) Türkçe Dublaj m720P İndir
0
638
  • Derecelendirme: 0/5 - 0 oy
  • 1
  • 2
  • 3
  • 4
  • 5
Konuyu Okuyanlar:2 Ziyaretçi
Şuan Offine!
Filmin Yayınlanma Tarihi: 2018 
Şuan Offine!
DRMOV Uzman Moderatör
*****
images/FBT/uzman_mod.png
  • Konular24
  • Mesajlar24
  • Rep puanı 2

indirme türü


Bulut + Premium

Vizyon Tarihi


27 Haziran 2018

Boyutlar


1,47

diller


[TR]

altyazilar


Yok [Eklenebilir]

Video Format: Mkv


Matroska (.MKV)

Video Detay


MPEG-4, 1050 Kbps, 1,08GB

imdb puanı


7,8 / 10,0 / 220,000

süre


147 dakika

Ses Kodek: AC3


Audio Coding 3 (AC3)

Ses Detay


384 Kbps, 6 Kanal, 405Mb

Editör Puanı


8,0

Genislik Yukseklik


1280-534

sürüm


x264 | 720P


Film Detayları

Ethan Hunt ve IMF ekibi, bir görevi yeterince hızlı çözemediğinden  ve bazı hatalarından dolayı teroristler istedikleri patlamayı yapmaya çok hazırdır ve Ethan Hunt ve ekibi, bu olayı çözebilmek için zamana karşı mücadele etmek zorundadır.

Mission: Impossible - Yansımalar (Fallout) Filmi İmdb'den 220.000 kişi tarafından oylandı ve 7,8 puan aldı. Bu film için editör puanı 7,3 olarak belirlendi. İyi Seyirler!


Teknik Detaylar



Kod :
General
Complete name                            : Mission.Impossible.Fallout.2018.m720p.BLURAY.x264.TR.Filmbol.mkv
Format                                   : Matroska
Format version                           : Version 4 / Version 2
File size                                : 1.48 GiB
Duration                                 : 2h 27mn
Overall bit rate                         : 1 435 Kbps
Movie name                               : Mission Impossible Fallout (2018) TR 720P - Filmbol.org
Encoded date                             : UTC 2019-01-28 10:05:24
Writing application                      : mkvmerge v8.8.0 ('Wind at my back') 64bit
Writing library                          : libebml v1.3.3 + libmatroska v1.4.4

Video
ID                                       : 1
Format                                   : AVC
Format/Info                              : Advanced Video Codec
Format profile                           : High@L4.1
Format settings, CABAC                   : Yes
Format settings, ReFrames                : 4 frames
Codec ID                                 : V_MPEG4/ISO/AVC
Duration                                 : 2h 27mn
Bit rate                                 : 1 050 Kbps
Width                                    : 1 280 pixels
Height                                   : 534 pixels
Display aspect ratio                     : 2.40:1
Original display aspect ratio            : 2.40:1
Frame rate mode                          : Constant
Frame rate                               : 23.976 (24000/1001) fps
Color space                              : YUV
Chroma subsampling                       : 4:2:0
Bit depth                                : 8 bits
Scan type                                : Progressive
Bits/(Pixel*Frame)                       : 0.064
Stream size                              : 1.08 GiB (73%)
Title                                    : 720P - Filmbol.org
Writing library                          : x264 core 157
Default                                  : Yes
Forced                                   : No

Audio
ID                                       : 2
Format                                   : AC-3
Format/Info                              : Audio Coding 3
Mode extension                           : CM (complete main)
Format settings, Endianness              : Big
Codec ID                                 : A_AC3
Duration                                 : 2h 27mn
Bit rate mode                            : Constant
Bit rate                                 : 384 Kbps
Channel(s)                               : 6 channels
Channel positions                        : Front: L C R, Side: L R, LFE
Sampling rate                            : 48.0 KHz
Frame rate                               : 31.250 fps (1536 spf)
Compression mode                         : Lossy
Stream size                              : 405 MiB (27%)
Title                                    : Türkçe - Filmbol.org
Language                                 : Turkish
Default                                  : Yes
Forced                                   : No

Film Detayları


Mission Impossible Fallout

Mission Impossible Fallout

Mission Impossible Fallout

Mission Impossible Fallout

Mission Impossible Fallout



Film Fragmanı


Film Detayları

Mini 720P İndir


Uptobox ile indir

CloudRu ile indir

eqXg

Mega ile indir



Konu ile Alakalı Benzer Konular
Konular Yazar Yorumlar Okunma Son Yorum
Filmin Yayınlanma Tarihi: 2019
Shazam! 6 Güç Türkçe Dublaj Bluray m720P İndir BroserBros 3 679 18-05-2020, Saat: 19:03
Son Yorum: problemboy1
Filmin Yayınlanma Tarihi: 2019
The Silence (2019) Türkçe Dublaj BLURAY m720P İndir BroserBros 5 556 12-05-2020, Saat: 21:37
Son Yorum: Nizyy
Filmin Yayınlanma Tarihi: 2019
Godzilla 2: Canavarlar Kralı (King of the Monsters) Türkçe Dublaj BLURAY m720P İndir BroserBros 12 995 03-05-2020, Saat: 17:05
Son Yorum: jisiso5307
Filmin Yayınlanma Tarihi: 2004
Harry Potter ve Azbakan Tutsağı (Prisoner of Azkaban) Türkçe Dublaj m720P İndir BroserBros 15 1,289 14-04-2020, Saat: 04:06
Son Yorum: quneshlee
Filmin Yayınlanma Tarihi: 2016
Suçlu (Criminal) Türkçe Dublaj m720P İndir BroserBros 1 1,381 12-04-2020, Saat: 19:21
Son Yorum: saeed1133

Hızlı Menü: