Filmbol Forum Film İndir 1080P v Mission: Impossible - Yansımalar (Fallout) Türkçe Dublaj m1080P İndir
Moderatör Alımları Başladı! Başvuru yapmak için tıklayın.
Filmbol Premium'da %50'e varan indirim fırsatı!
Mission: Impossible - Yansımalar (Fallout) Türkçe Dublaj m1080P İndir
DRMOV
Mission: Impossible - Yansımalar (Fallout) Türkçe Dublaj m1080P İndir
12
991
  • Derecelendirme: 0/5 - 0 oy
  • 1
  • 2
  • 3
  • 4
  • 5
Konuyu Okuyanlar:1 Ziyaretçi
Şuan Offine!
Filmin Yayınlanma Tarihi: 2018 
Şuan Offine!
DRMOV Uzman Moderatör
*****
images/FBT/uzman_mod.png
  • Konular24
  • Mesajlar24
  • Rep puanı 2

indirme türü


Bulut + Premium

Vizyon Tarihi


27 Haziran 2018

Boyutlar


2,61

diller


[TR]

altyazilar


Yok [Eklenebilir]

Video Format: Mkv


Matroska (.MKV)

Video Detay


MPEG-4, 2150 Kbps, 2,21GB

imdb puanı


7,8 / 10,0 / 220,000

süre


147 dakika

Ses Kodek: AC3


Audio Coding 3 (AC3)

Ses Detay


384 Kbps, 6 Kanal, 405Mb

Editör Puanı


8,0

Genislik Yukseklik


1920-800

sürüm


x264 | 1080P


Film Detayları

Ethan Hunt ve IMF ekibi, bir görevi yeterince hızlı çözemediğinden  ve bazı hatalarından dolayı teroristler istedikleri patlamayı yapmaya çok hazırdır ve Ethan Hunt ve ekibi, bu olayı çözebilmek için zamana karşı mücadele etmek zorundadır.

Mission: Impossible - Yansımalar (Fallout) Filmi İmdb'den 220.000 kişi tarafından oylandı ve 7,8 puan aldı. Bu film için editör puanı 7,3 olarak belirlendi. İyi Seyirler!


Teknik Detaylar



Kod :
General
Complete name                            : Mission.Impossible.Fallout.2018.m1080p.BLURAY.x264.TR.Filmbol.mkv
Format                                   : Matroska
Format version                           : Version 4 / Version 2
File size                                : 2.61 GiB
Duration                                 : 2h 27mn
Overall bit rate                         : 2 536 Kbps
Movie name                               : Mission Impossible Fallout (2018) TR 1080P - Filmbol.org
Encoded date                             : UTC 2019-01-28 10:06:37
Writing application                      : mkvmerge v8.8.0 ('Wind at my back') 64bit
Writing library                          : libebml v1.3.3 + libmatroska v1.4.4

Video
ID                                       : 1
Format                                   : AVC
Format/Info                              : Advanced Video Codec
Format profile                           : High@L4.1
Format settings, CABAC                   : Yes
Format settings, ReFrames                : 4 frames
Codec ID                                 : V_MPEG4/ISO/AVC
Duration                                 : 2h 27mn
Bit rate                                 : 2 150 Kbps
Width                                    : 1 920 pixels
Height                                   : 800 pixels
Display aspect ratio                     : 2.40:1
Frame rate mode                          : Constant
Frame rate                               : 23.976 (24000/1001) fps
Color space                              : YUV
Chroma subsampling                       : 4:2:0
Bit depth                                : 8 bits
Scan type                                : Progressive
Bits/(Pixel*Frame)                       : 0.058
Stream size                              : 2.21 GiB (85%)
Title                                    : 1080P - Filmbol.org
Writing library                          : x264 core 157
Default                                  : Yes
Forced                                   : No

Audio
ID                                       : 2
Format                                   : AC-3
Format/Info                              : Audio Coding 3
Mode extension                           : CM (complete main)
Format settings, Endianness              : Big
Codec ID                                 : A_AC3
Duration                                 : 2h 27mn
Bit rate mode                            : Constant
Bit rate                                 : 384 Kbps
Channel(s)                               : 6 channels
Channel positions                        : Front: L C R, Side: L R, LFE
Sampling rate                            : 48.0 KHz
Frame rate                               : 31.250 fps (1536 spf)
Compression mode                         : Lossy
Stream size                              : 405 MiB (15%)
Title                                    : Türkçe - Filmbol.org
Language                                 : Turkish
Default                                  : Yes
Forced                                   : No

Film Detayları


Mission Impossible Fallout

Mission Impossible Fallout

Mission Impossible Fallout

Mission Impossible Fallout

Mission Impossible Fallout



Film Fragmanı


Film Detayları

Mini 1080P İndir


Uptobox ile indir

eqXf

Google Drive linki şuan da gizli. Kullanıma açmak için konuya yorum yapın ve ardından sayfayı yenileyin. Ayrıca bu linki açtığınızda reklamsız olarak erişebileceğinizi unutmayın.

Google Drive

Şuan Offine!
Şuan Offine!
Aspirin46 Süper Üye
***
Super Üye

  • Konular0
  • Mesajlar54
  • Rep puanı 0
süper
Şuan Offine!
Şuan Offine!
Haylaz53 Uzman Üye
**
Uzman Üye

  • Konular0
  • Mesajlar13
  • Rep puanı 0
Guzel
Şuan Offine!
Şuan Offine!
zubizeratta Uzman Üye
**
Uzman Üye

  • Konular0
  • Mesajlar8
  • Rep puanı 1
Teşekkürler
Şuan Offine!
Şuan Offine!
orhan532 Yeni Üye
*
Üye

  • Konular0
  • Mesajlar2
  • Rep puanı 0
EMEĞİNE SAĞLIK GARDAŞ
Şuan Offine!
Şuan Offine!
iambisar Uzman Üye
**
Uzman Üye

  • Konular0
  • Mesajlar22
  • Rep puanı 0
aradığım siteyi buldum
Şuan Offine!
Şuan Offine!
alihoca Yeni Üye
*
Üye

  • Konular0
  • Mesajlar1
  • Rep puanı 0
Teşekkürler
Şuan Offine!
Şuan Offine!
mertsoydas2 Yeni Üye
*
Üye

  • Konular0
  • Mesajlar1
  • Rep puanı 0
güzeel Rolleyes
Şuan Offine!
Şuan Offine!
merve320 Uzman Üye
**
Uzman Üye

  • Konular0
  • Mesajlar17
  • Rep puanı 0
Teşekkürler
Şuan Offine!
Şuan Offine!
asdasdasd Yeni Üye
*
Üye

  • Konular0
  • Mesajlar1
  • Rep puanı 0
12312313


Konu ile Alakalı Benzer Konular
Konular Yazar Yorumlar Okunma Son Yorum
Filmin Yayınlanma Tarihi: 2018
Örümcek Adam: Örümcek Evreninde (Spider-Man) Türkçe Dublaj BLURAY m1080P İndir BroserBros 32 1,995 11 saat önce
Son Yorum: awddwadadwad
Filmin Yayınlanma Tarihi: 2001
Harry Potter ve Felsefe Taşı (2001) Türkçe Dublaj BLURAY m1080P İndir BroserBros 32 3,817 01-07-2020, Saat: 21:42
Son Yorum: yusufokur000
Filmin Yayınlanma Tarihi: 2011
Harry Potter ve Ölüm Yadigarları: Bölüm 2 (2011) Türkçe Dublaj BLURAY m1080P İndi BroserBros 15 1,165 24-06-2020, Saat: 00:31
Son Yorum: Rych
Filmin Yayınlanma Tarihi: 2010
Harry Potter ve Ölüm Yadigarları: Bölüm 1 (2010) Türkçe Dublaj BLURAY m1080P İndir BroserBros 11 816 24-06-2020, Saat: 00:19
Son Yorum: Rych
Filmin Yayınlanma Tarihi: 2007
Harry Potter ve Zümrüdüanka Yoldaşlığı (2007) Türkçe Dublaj BLURAY m1080P İndir BroserBros 15 924 23-06-2020, Saat: 23:41
Son Yorum: Rych

Hızlı Menü: