Hoşgeldin, Ziyaretçi: Giriş Yap Üye Ol


Konuyu Oyla:
  • Derecelendirme: 0/5 - 0 oy
  • 1
  • 2
  • 3
  • 4
  • 5
Mission: Impossible - Yansımalar (Fallout) Türkçe Dublaj Brrip-Xvid İndir
#1
Filmin Yayınlanma Tarihi: 2018 

indirme türü


Bulut + Premium

vizyon tarihi


27 Haziran 2018

Boyutlar


1,78

diller


[TR]

altyazilar


Yok [Eklenebilir]

Video Format: Avi


Audio Video Interleave (.AVI)

Video Detay


MPEG-4, 1598 Kbps, 1,64GB

imdb puanı


7,8 / 10,0 / 220,000

süre


147 dakika

Ses Kodek: MP3


MPEG-1 Audio Layer III (MP3)

Ses Detay


128 Kbps, 2 Kanal, 135Mb

Editör Puanı


8,0

Genislik Yukseklik


720-380

sürüm


h263 | Brrip-Xvid



Film Detayları

Ethan Hunt ve IMF ekibi, bir görevi yeterince hızlı çözemediğinden  ve bazı hatalarından dolayı teroristler istedikleri patlamayı yapmaya çok hazırdır ve Ethan Hunt ve ekibi, bu olayı çözebilmek için zamana karşı mücadele etmek zorundadır.

Mission: Impossible - Yansımalar (Fallout) Filmi İmdb'den 220.000 kişi tarafından oylandı ve 7,8 puan aldı. Bu film için editör puanı 7,3 olarak belirlendi. İyi Seyirler!


Teknik Detaylar




Kod:
General
Complete name                            : Mission.Impossible.Fallout.2018.BRRip.XviD.TR.Filmbol.avi
Format                                   : AVI
Format/Info                              : Audio Video Interleave
File size                                : 1.79 GiB
Duration                                 : 2h 27mn
Overall bit rate                         : 1 739 Kbps

Video
ID                                       : 0
Format                                   : MPEG-4 Visual
Format profile                           : Simple@L5
Format settings, BVOP                    : No
Format settings, QPel                    : No
Format settings, GMC                     : No warppoints
Format settings, Matrix                  : Default (H.263)
Codec ID                                 : XVID
Codec ID/Hint                            : XviD
Duration                                 : 2h 27mn
Bit rate                                 : 1 598 Kbps
Width                                    : 720 pixels
Height                                   : 380 pixels
Display aspect ratio                     : 1.902
Frame rate                               : 23.976 fps
Color space                              : YUV
Chroma subsampling                       : 4:2:0
Bit depth                                : 8 bits
Scan type                                : Progressive
Compression mode                         : Lossy
Bits/(Pixel*Frame)                       : 0.244
Stream size                              : 1.64 GiB (92%)
Writing library                          : Lavc58.18.100

Audio
ID                                       : 1
Format                                   : MPEG Audio
Format version                           : Version 1
Format profile                           : Layer 3
Mode                                     : Joint stereo
Mode extension                           : MS Stereo
Codec ID                                 : 55
Codec ID/Hint                            : MP3
Duration                                 : 2h 27mn
Bit rate mode                            : Constant
Bit rate                                 : 128 Kbps
Channel(s)                               : 2 channels
Sampling rate                            : 48.0 KHz
Compression mode                         : Lossy
Stream size                              : 135 MiB (7%)
Alignment                                : Aligned on interleaves
Interleave, duration                     : 24 ms (0.58 video frame)

Film Detayları


Mission Impossible Fallout

Mission Impossible Fallout

Mission Impossible Fallout

Mission Impossible Fallout

Mission Impossible Fallout



Film Fragmanı


Film Detayları

Brrip İndir


Turbobit İle İndir

Uptobox ile indir

Cloud Ru ile indir

Dosya Co ile indir

Dosya Upload ile indir

Mega ile indir

 
Alinti
  


Konu ile Alakalı Benzer Konular
Konular Yazar Yorumlar Okunma Son Yorum
Filmin Yayınlanma Tarihi: 2018 Adalet 2 (The Equalizer 2) Türkçe Dublaj Brrip-Xvid İndir DRMOV 0 147 09-02-2019, Saat: 12:54
Son Yorum: DRMOV
Filmin Yayınlanma Tarihi: 2017 Belalı Tanık (2017) Türkçe Dublaj Brrip-Xvid İndir BroserBros 1 660 25-11-2018, Saat: 16:04
Son Yorum: CstxtsC
Filmin Yayınlanma Tarihi: 2018 Deadpool 2 Türkçe Dublaj Brrip-Xvid İndir BroserBros 4 1,522 22-10-2018, Saat: 05:12
Son Yorum: facilba654
Filmin Yayınlanma Tarihi: 2016 Suicide Squad: Gerçek Kötüler Türkçe Dublaj Brrip-Xvid İndir BroserBros 1 2,503 18-09-2018, Saat: 02:22
Son Yorum: seaneren
Filmin Yayınlanma Tarihi: 2016 Asla Pes Etme 3 (Never Back Down 3) Türkçe Dublaj Brrip-Xvid İndir BroserBros 0 1,229 27-02-2017, Saat: 19:09
Son Yorum: BroserBros

Hızlı Menü:


Şu anda bu konuyu okuyanlar: 1 Ziyaretçi