Filmbol Forum Film İndir BRRip XviD v Merhaba Güzel Vatanım (Merhaba Güzel Vatanım) - 2019 - TR - BRRip XviD
Moderatör Alımları Başladı! Başvuru yapmak için tıklayın.
Filmbol Premium'da %50'e varan indirim fırsatı!
Merhaba Güzel Vatanım (Merhaba Güzel Vatanım) - 2019 - TR - BRRip XviD
BroserBros
Merhaba Güzel Vatanım (Merhaba Güzel Vatanım) - 2019 - TR - BRRip XviD
0
95
  • Derecelendirme: 0/5 - 0 oy
  • 1
  • 2
  • 3
  • 4
  • 5
Konuyu Okuyanlar:1 Ziyaretçi
Şuan Online!
Filmin Yayınlanma Tarihi: 2019 
Şuan Online!
BroserBros Kurucu Admin
*******
Admin

Vizyon Tarihi


01 Kasım 2019

imdb puanı


5,1 / 150

süre


99 dakika

Editör Puanı


6,5 / 10

Video Format: Avi


Audio Video Interleave (.AVI)

Ses Kodek: MP3


MPEG-1 Audio Layer III (MP3)

sürüm


h263 | HDRip XviD

Boyutlar


1,01 GB



 Merhaba Güzel Vatanım



Merhaba Güzel Vatanım, Nazım Hikmet ile Ahmet Ümit'in gerçek hayat hikayelerinden uyarlanıyor. Cengiz Özkarabekir'in yönetmen koltuğunda oturduğu filmde, Nazım Hikmet'in Moskova'ya uzanan yolculuğunun, Ahmet Ümit'in 1980'li yıllarda Moskova'ya gidişi üzerindeki etkisini ve Ümit'in fırtınalı yaşamına yansımalarını gözler önüne seriyor. Filmde aynı zamanda Nazım Hikmet ve Ahmet Ümit'in zorlu hayat serüvenlerinin edebi kişiliklerinin oluşması üzerindeki etkisi anlatılıyor. Yetkin Dikinciler'in Nazım Hikmet'e, Serkan Altıntaş'ın ise Ahmet Ümit'e hayat verdiği filmin kadrosunda Berna Laçin, Pelin Batu, Umut Beşkırma, Levent Üzümcü, İskender Bağcılar, Mehmet Tokat, Alper Türedi gibi isimler yer alıyor.

Merhaba Güzel Vatanım (2019) (Merhaba Güzel Vatanım) Filmi Imdb'den 150 kişi tarafından oylandı ve 5,1 puan aldı. Bu film için editör puanı 6,5 olarak belirlendi. İyi Seyirler!

Teknik Detaylar

Kod :
General
Complete name                            : /root/Desktop/1/Merhaba.Güzel.Vatanım.2019.HDRip.XViD.TR.Filmbol.avi
Format                                  : AVI
Format/Info                              : Audio Video Interleave
File size                                : 1.01 GiB
Duration                                : 1h 34mn
Overall bit rate                        : 1 526 Kbps
Writing application                      : VirtualDubMod 1.5.10.3 | www.virtualdub-fr.org || (build 2550/release)
Writing library                          : VirtualDubMod build 2550/release

Video
ID                                      : 0
Format                                  : MPEG-4 Visual
Format profile                          : Advanced Simple@L5
Format settings, BVOP                    : 1
Format settings, QPel                    : No
Format settings, GMC                    : No warppoints
Format settings, Matrix                  : Default (MPEG)
Muxing mode                              : Packed bitstream
Codec ID                                : XVID
Codec ID/Hint                            : XviD
Duration                                : 1h 34mn
Bit rate                                : 1 389 Kbps
Width                                    : 720 pixels
Height                                  : 404 pixels
Display aspect ratio                    : 16:9
Frame rate                              : 25.000 fps
Color space                              : YUV
Chroma subsampling                      : 4:2:0
Bit depth                                : 8 bits
Scan type                                : Progressive
Compression mode                        : Lossy
Bits/(Pixel*Frame)                      : 0.191
Stream size                              : 942 MiB (91%)
Writing library                          : XviD 64

Audio
ID                                      : 1
Format                                  : MPEG Audio
Format version                          : Version 1
Format profile                          : Layer 3
Mode                                    : Joint stereo
Mode extension                          : MS Stereo
Codec ID                                : 55
Codec ID/Hint                            : MP3
Duration                                : 1h 34mn
Bit rate mode                            : Constant
Bit rate                                : 128 Kbps
Channel(s)                              : 2 channels
Sampling rate                            : 48.0 KHz
Compression mode                        : Lossy
Stream size                              : 86.9 MiB (8%)
Alignment                                : Split accross interleaves
Interleave, duration                    : 40 ms (1.00 video frame)
Interleave, preload duration            : 500 ms
Writing library                          : LAME3.99.5

Film Detayları


 Merhaba Güzel Vatanım

 Merhaba Güzel Vatanım

 Merhaba Güzel Vatanım


Film Fragmanı


Film Detayları


Uptobox ile indir

1Fichier ile indir

1Fichier'den İndiremiyor musun? Tıklayın!


Mega ile indir

Bunun için üzgünüz ancak, bu linke sadece premium üyeler erişebilir.

Filmbol Cloud



Konu ile Alakalı Benzer Konular
Konular Yazar Yorumlar Okunma Son Yorum
Filmin Yayınlanma Tarihi: 2014
Lego Filmi (The Lego Movie) - 2014 - TR - BRRip XviD BroserBros 0 17 10 saat önce
Son Yorum: BroserBros
Filmin Yayınlanma Tarihi: 2014
Nuh: Büyük Tufan (Noah) - 2014 - TR - BRRip XviD BroserBros 0 18 10 saat önce
Son Yorum: BroserBros
Filmin Yayınlanma Tarihi: 2014
Yarının Sınırında (Edge of Tomorrow) - 2014 - TR - BRRip XviD BroserBros 0 29 , Saat: 20:40
Son Yorum: BroserBros
Filmin Yayınlanma Tarihi: 2014
Hız Tutkusu (Need for Speed) - 2014 - TR - BRRip XviD BroserBros 3 88 , Saat: 12:10
Son Yorum: BroserBros
Filmin Yayınlanma Tarihi: 2014
300: Bir İmparatorluğun Yükselişi (300: Rise of an Empire - 300 Spartalı 2) - 2014 - TR - BRRip XviD BroserBros 0 62 04-06-2020, Saat: 13:39
Son Yorum: BroserBros

Hızlı Menü: